<?xml version="1.0" standalone="no"?>
<!DOCTYPE svg PUBLIC "-//W3C//DTD SVG 1.1//EN" "http://www.w3.org/Graphics/SVG/1.1/DTD/svg11.dtd" >
<svg>
<metadata>
Created by FontForge 20090622 at Mon Feb 18 12:31:12 2019
 By deploy user
Copyright \(c\) 2010 by Ryoichi Tsunekawa. All rights reserved.
</metadata>
<defs>
<font id="BebasNeue-Regular" horiz-adv-x="387" >
  <font-face 
    font-family="Bebas Neue"
    font-weight="400"
    font-stretch="normal"
    units-per-em="1000"
    panose-1="0 0 5 0 0 0 0 0 0 0"
    ascent="750"
    descent="-250"
    x-height="700"
    cap-height="700"
    bbox="-79 -179 831 887"
    underline-thickness="50"
    underline-position="-60"
    unicode-range="U+0020-U+F6C3"
  />
<missing-glyph horiz-adv-x="548" 
d="M498 700v-700h-448v700h448zM122 77h55l92 236l92 -236h62l-110 281l103 264h-55l-86 -218l-85 218h-61l103 -264z" />
    <glyph glyph-name=".notdef" horiz-adv-x="548" 
d="M498 700v-700h-448v700h448zM122 77h55l92 236l92 -236h62l-110 281l103 264h-55l-86 -218l-85 218h-61l103 -264z" />
    <glyph glyph-name="NULL" horiz-adv-x="0" 
 />
    <glyph glyph-name="nonmarkingreturn" horiz-adv-x="155" 
 />
    <glyph glyph-name="space" unicode=" " horiz-adv-x="155" 
 />
    <glyph glyph-name="A" unicode="A" horiz-adv-x="422" 
d="M92 0h-72l134 700h113l134 -700h-78l-27 141h-177zM285 208l-79 404l-77 -404h156z" />
    <glyph glyph-name="Aacute" unicode="&#xc1;" horiz-adv-x="422" 
d="M213 737h-55l70 103h77zM92 0h-72l134 700h113l134 -700h-78l-27 141h-177zM285 208l-79 404l-77 -404h156z" />
    <glyph glyph-name="Abreve" unicode="&#x102;" horiz-adv-x="422" 
d="M286 760q-28 -27 -77 -27q-48 0 -75 27t-28 74h47q3 -52 56 -52q55 0 58 52h47q0 -47 -28 -74zM92 0h-72l134 700h113l134 -700h-78l-27 141h-177zM285 208l-79 404l-77 -404h156z" />
    <glyph glyph-name="Acircumflex" unicode="&#xc2;" horiz-adv-x="422" 
d="M89 737l86 100h70l86 -100h-68l-53 59l-53 -59h-68zM92 0h-72l134 700h113l134 -700h-78l-27 141h-177zM285 208l-79 404l-77 -404h156z" />
    <glyph glyph-name="Adieresis" unicode="&#xc4;" horiz-adv-x="422" 
d="M182 737h-68v90h68v-90zM306 737h-68v90h68v-90zM92 0h-72l134 700h113l134 -700h-78l-27 141h-177zM285 208l-79 404l-77 -404h156z" />
    <glyph glyph-name="Agrave" unicode="&#xc0;" horiz-adv-x="422" 
d="M260 737h-57l-93 103h80zM92 0h-72l134 700h113l134 -700h-78l-27 141h-177zM285 208l-79 404l-77 -404h156z" />
    <glyph glyph-name="Amacron" unicode="&#x100;" horiz-adv-x="422" 
d="M316 750h-212v56h212v-56zM92 0h-72l134 700h113l134 -700h-78l-27 141h-177zM285 208l-79 404l-77 -404h156z" />
    <glyph glyph-name="Aogonek" unicode="&#x104;" horiz-adv-x="422" 
d="M347 -33q-10 -19 -10 -34q0 -16 10.5 -24t26.5 -8q20 0 40 9v-41q-27 -12 -62 -12t-55 14.5t-20 43.5q0 21 12.5 41.5t35.5 36.5l-29 148h-177l-27 -141h-72l134 700h113l134 -700h-28q-16 -14 -26 -33zM285 208l-79 404l-77 -404h156z" />
    <glyph glyph-name="Aring" unicode="&#xc5;" horiz-adv-x="422" 
d="M262 862q21 -21 21 -52t-21 -52t-52 -21q-32 0 -53 21t-21 52t21.5 52t52.5 21t52 -21zM183.5 835.5q-10.5 -10.5 -10.5 -25.5q0 -16 10.5 -26t26.5 -10q15 0 25.5 10t10.5 26q0 15 -10.5 25.5t-25.5 10.5q-16 0 -26.5 -10.5zM92 0h-72l134 700h113l134 -700h-78l-27 141
h-177zM285 208l-79 404l-77 -404h156z" />
    <glyph glyph-name="Atilde" unicode="&#xc3;" horiz-adv-x="422" 
d="M187 822q11 -4 27 -13q24 -13 39 -13q26 2 40 30l39 -27q-23 -57 -73 -57q-14 0 -25 4t-26 12q-24 13 -39 13q-14 0 -24 -6.5t-18 -23.5l-39 27q22 56 73 58q15 0 26 -4zM92 0h-72l134 700h113l134 -700h-78l-27 141h-177zM285 208l-79 404l-77 -404h156z" />
    <glyph glyph-name="AE" unicode="&#xc6;" horiz-adv-x="585" 
d="M516 320h-161v-249h198v-71h-275v142h-143l-45 -142h-74l218 700h319v-71h-198v-239h161v-70zM278 210v392l-125 -392h125z" />
    <glyph glyph-name="AEacute" unicode="&#x1fc;" horiz-adv-x="585" 
d="M317 741h-54l70 103h77zM516 320h-161v-249h198v-71h-275v142h-143l-45 -142h-74l218 700h319v-71h-198v-239h161v-70zM278 210v392l-125 -392h125z" />
    <glyph glyph-name="B" unicode="B" horiz-adv-x="392" 
d="M313 662q36 -38 36 -117v-33q0 -58 -19 -91.5t-63 -47.5q94 -26 94 -150v-59q0 -80 -39.5 -122t-120.5 -42h-161v700h157q80 0 116 -38zM249.5 423q22.5 20 22.5 73v41q0 47 -18 69.5t-59 22.5h-77v-226h60q49 0 71.5 20zM264 94q20 23 20 72v62q0 57 -23 80.5t-75 23.5
h-68v-261h83q43 0 63 23z" />
    <glyph glyph-name="C" unicode="C" horiz-adv-x="380" 
d="M309.5 660q39.5 -47 39.5 -129v-63h-74v67q0 101 -82 101q-41 0 -61.5 -26.5t-20.5 -74.5v-370q0 -48 20.5 -74.5t61.5 -26.5q82 0 82 101v91h74v-87q0 -82 -39.5 -129t-118.5 -47q-78 0 -117.5 47t-39.5 129v362q0 82 39.5 129t117.5 47q79 0 118.5 -47z" />
    <glyph glyph-name="Cacute" unicode="&#x106;" horiz-adv-x="380" 
d="M200 742h-55l70 103h78zM309.5 660q39.5 -47 39.5 -129v-63h-74v67q0 101 -82 101q-41 0 -61.5 -26.5t-20.5 -74.5v-370q0 -48 20.5 -74.5t61.5 -26.5q82 0 82 101v91h74v-87q0 -82 -39.5 -129t-118.5 -47q-78 0 -117.5 47t-39.5 129v362q0 82 39.5 129t117.5 47
q79 0 118.5 -47z" />
    <glyph glyph-name="Ccaron" unicode="&#x10c;" horiz-adv-x="380" 
d="M193 781l53 60h69l-87 -100h-69l-86 100h68zM309.5 660q39.5 -47 39.5 -129v-63h-74v67q0 101 -82 101q-41 0 -61.5 -26.5t-20.5 -74.5v-370q0 -48 20.5 -74.5t61.5 -26.5q82 0 82 101v91h74v-87q0 -82 -39.5 -129t-118.5 -47q-78 0 -117.5 47t-39.5 129v362
q0 82 39.5 129t117.5 47q79 0 118.5 -47z" />
    <glyph glyph-name="Ccedilla" unicode="&#xc7;" horiz-adv-x="380" 
d="M309.5 660q39.5 -47 39.5 -129v-63h-74v67q0 101 -82 101q-41 0 -61.5 -26.5t-20.5 -74.5v-370q0 -48 20.5 -74.5t61.5 -26.5q82 0 82 101v91h74v-87q0 -77 -35.5 -124t-105.5 -51v-31q35 0 54.5 -13.5t19.5 -37.5q0 -30 -25 -47t-70 -17q-43 0 -67.5 16.5t-24.5 45.5v8
h51v-7q0 -12 11 -20t30 -9q20 0 31.5 8.5t11.5 23.5q0 14 -13 22t-36 8h-9v50q-69 5 -103.5 51.5t-34.5 123.5v362q0 82 39.5 129t117.5 47q79 0 118.5 -47z" />
    <glyph glyph-name="Ccircumflex" unicode="&#x108;" horiz-adv-x="380" 
d="M72 740l86 101h69l87 -101h-68l-53 59l-53 -59h-68zM309.5 660q39.5 -47 39.5 -129v-63h-74v67q0 101 -82 101q-41 0 -61.5 -26.5t-20.5 -74.5v-370q0 -48 20.5 -74.5t61.5 -26.5q82 0 82 101v91h74v-87q0 -82 -39.5 -129t-118.5 -47q-78 0 -117.5 47t-39.5 129v362
q0 82 39.5 129t117.5 47q79 0 118.5 -47z" />
    <glyph glyph-name="Cdotaccent" unicode="&#x10a;" horiz-adv-x="380" 
d="M225 738h-68v90h68v-90zM309.5 660q39.5 -47 39.5 -129v-63h-74v67q0 101 -82 101q-41 0 -61.5 -26.5t-20.5 -74.5v-370q0 -48 20.5 -74.5t61.5 -26.5q82 0 82 101v91h74v-87q0 -82 -39.5 -129t-118.5 -47q-78 0 -117.5 47t-39.5 129v362q0 82 39.5 129t117.5 47
q79 0 118.5 -47z" />
    <glyph glyph-name="D" unicode="D" horiz-adv-x="396" 
d="M323.5 654.5q39.5 -45.5 39.5 -128.5v-353q0 -82 -39.5 -127.5t-119.5 -45.5h-164v700h164q80 0 119.5 -45.5zM286 170v360q0 99 -84 99h-84v-558h85q83 0 83 99z" />
    <glyph glyph-name="Eth" unicode="&#xd0;" horiz-adv-x="396" 
d="M323.5 654.5q39.5 -45.5 39.5 -128.5v-353q0 -82 -39.5 -127.5t-119.5 -45.5h-164v318h-41v64h41v318h164q80 0 119.5 -45.5zM118 318v-247h85q83 0 83 99v360q0 99 -84 99h-84v-247h78v-64h-78z" />
    <glyph glyph-name="Dcaron" unicode="&#x10e;" horiz-adv-x="396" 
d="M188 779l53 60h69l-87 -100h-69l-87 100h68zM323.5 654.5q39.5 -45.5 39.5 -128.5v-353q0 -82 -39.5 -127.5t-119.5 -45.5h-164v700h164q80 0 119.5 -45.5zM286 170v360q0 99 -84 99h-84v-558h85q83 0 83 99z" />
    <glyph glyph-name="Dcroat" unicode="&#x110;" horiz-adv-x="396" 
d="M323.5 654.5q39.5 -45.5 39.5 -128.5v-353q0 -82 -39.5 -127.5t-119.5 -45.5h-164v318h-39v63h39v319h164q80 0 119.5 -45.5zM118 318v-247h85q83 0 83 99v360q0 99 -84 99h-84v-248h79v-63h-79z" />
    <glyph glyph-name="E" unicode="E" horiz-adv-x="360" 
d="M289 320h-171v-249h210v-71h-288v700h288v-71h-210v-239h171v-70z" />
    <glyph glyph-name="Eacute" unicode="&#xc9;" horiz-adv-x="360" 
d="M190 739h-54l70 103h77zM289 320h-171v-249h210v-71h-288v700h288v-71h-210v-239h171v-70z" />
    <glyph glyph-name="Ebreve" unicode="&#x114;" horiz-adv-x="360" 
d="M258 766q-28 -27 -77 -27q-48 0 -75 27t-28 74h47q3 -52 56 -52q55 0 59 52h47q-1 -47 -29 -74zM289 320h-171v-249h210v-71h-288v700h288v-71h-210v-239h171v-70z" />
    <glyph glyph-name="Ecaron" unicode="&#x11a;" horiz-adv-x="360" 
d="M183 779l54 60h68l-87 -100h-69l-86 100h68zM289 320h-171v-249h210v-71h-288v700h288v-71h-210v-239h171v-70z" />
    <glyph glyph-name="Ecircumflex" unicode="&#xca;" horiz-adv-x="360" 
d="M62 739l86 101h69l87 -101h-68l-54 60l-52 -60h-68zM289 320h-171v-249h210v-71h-288v700h288v-71h-210v-239h171v-70z" />
    <glyph glyph-name="Edieresis" unicode="&#xcb;" horiz-adv-x="360" 
d="M155 739h-68v90h68v-90zM279 739h-68v90h68v-90zM289 320h-171v-249h210v-71h-288v700h288v-71h-210v-239h171v-70z" />
    <glyph glyph-name="Edotaccent" unicode="&#x116;" horiz-adv-x="360" 
d="M218 740h-68v90h68v-90zM289 320h-171v-249h210v-71h-288v700h288v-71h-210v-239h171v-70z" />
    <glyph glyph-name="Egrave" unicode="&#xc8;" horiz-adv-x="360" 
d="M236 742h-57l-93 103h81zM289 320h-171v-249h210v-71h-288v700h288v-71h-210v-239h171v-70z" />
    <glyph glyph-name="Emacron" unicode="&#x112;" horiz-adv-x="360" 
d="M286 752h-209v55h209v-55zM289 320h-171v-249h210v-71h-288v700h288v-71h-210v-239h171v-70z" />
    <glyph glyph-name="Eogonek" unicode="&#x118;" horiz-adv-x="360" 
d="M289 320h-171v-249h210v-71h-33q-18 -14 -27.5 -33.5t-9.5 -35.5q1 -15 11.5 -22.5t26.5 -7.5q13 0 21 2t18 7v-41q-27 -12 -61 -12q-35 0 -55 14t-21 42q0 24 16.5 46.5t44.5 40.5h-219v700h288v-71h-210v-239h171v-70z" />
    <glyph glyph-name="F" unicode="F" horiz-adv-x="340" 
d="M279 303h-161v-303h-78v700h278v-71h-200v-255h161v-71z" />
    <glyph glyph-name="G" unicode="G" horiz-adv-x="383" 
d="M309.5 660q39.5 -47 39.5 -129v-60h-74v64q0 101 -82 101q-41 0 -61.5 -26.5t-20.5 -74.5v-370q0 -48 20.5 -74.5t61.5 -26.5q82 0 82 101v140h-72v70h146v-206q0 -82 -39.5 -129t-118.5 -47q-78 0 -117.5 47t-39.5 129v362q0 82 39.5 129t117.5 47q79 0 118.5 -47z" />
    <glyph glyph-name="Gbreve" unicode="&#x11e;" horiz-adv-x="383" 
d="M267.5 767q-27.5 -27 -76.5 -27t-76 27t-28 74h47q4 -52 57 -52q54 0 58 52h47q-1 -47 -28.5 -74zM309.5 660q39.5 -47 39.5 -129v-60h-74v64q0 101 -82 101q-41 0 -61.5 -26.5t-20.5 -74.5v-370q0 -48 20.5 -74.5t61.5 -26.5q82 0 82 101v140h-72v70h146v-206
q0 -82 -39.5 -129t-118.5 -47q-78 0 -117.5 47t-39.5 129v362q0 82 39.5 129t117.5 47q79 0 118.5 -47z" />
    <glyph glyph-name="Gcircumflex" unicode="&#x11c;" horiz-adv-x="383" 
d="M71 742l86 100h69l87 -100h-68l-54 59l-52 -59h-68zM309.5 660q39.5 -47 39.5 -129v-60h-74v64q0 101 -82 101q-41 0 -61.5 -26.5t-20.5 -74.5v-370q0 -48 20.5 -74.5t61.5 -26.5q82 0 82 101v140h-72v70h146v-206q0 -82 -39.5 -129t-118.5 -47q-78 0 -117.5 47
t-39.5 129v362q0 82 39.5 129t117.5 47q79 0 118.5 -47z" />
    <glyph glyph-name="Gdotaccent" unicode="&#x120;" horiz-adv-x="383" 
d="M228 740h-68v90h68v-90zM309.5 660q39.5 -47 39.5 -129v-60h-74v64q0 101 -82 101q-41 0 -61.5 -26.5t-20.5 -74.5v-370q0 -48 20.5 -74.5t61.5 -26.5q82 0 82 101v140h-72v70h146v-206q0 -82 -39.5 -129t-118.5 -47q-78 0 -117.5 47t-39.5 129v362q0 82 39.5 129
t117.5 47q79 0 118.5 -47z" />
    <glyph glyph-name="H" unicode="H" horiz-adv-x="408" 
d="M118 0h-78v700h78v-315h172v315h78v-700h-78v315h-172v-315z" />
    <glyph glyph-name="Hbar" unicode="&#x126;" horiz-adv-x="415" 
d="M372 0h-79v315h-172v-315h-78v514h-36v58h36v128h78v-128h172v128h79v-128h36v-58h-36v-514zM121 514v-129h172v129h-172z" />
    <glyph glyph-name="Hcircumflex" unicode="&#x124;" horiz-adv-x="408" 
d="M83 741l87 101h69l86 -101h-68l-53 59l-53 -59h-68zM118 0h-78v700h78v-315h172v315h78v-700h-78v315h-172v-315z" />
    <glyph glyph-name="I" unicode="I" horiz-adv-x="158" 
d="M118 0h-78v700h78v-700z" />
    <glyph glyph-name="IJ" unicode="&#x132;" horiz-adv-x="412" 
d="M118 0h-78v700h78v-700zM335.5 40.5q-40.5 -39.5 -110.5 -41.5q-31 0 -48 1v71q13 -1 38 -1q42 2 62.5 24.5t20.5 73.5v532h78v-527q0 -93 -40.5 -132.5z" />
    <glyph glyph-name="Iacute" unicode="&#xcd;" horiz-adv-x="158" 
d="M178 842l-93 -103h-54l69 103h78zM118 700v-700h-78v700h78z" />
    <glyph glyph-name="Ibreve" unicode="&#x12c;" horiz-adv-x="158" 
d="M155 763.5q-28 -27.5 -77 -27.5q-48 0 -75 27t-28 75h47q3 -53 56 -53q54 0 58 53h47q0 -47 -28 -74.5zM118 700v-700h-78v700h78z" />
    <glyph glyph-name="Icircumflex" unicode="&#xce;" horiz-adv-x="158" 
d="M200 739h-68l-53 59l-53 -59h-68l86 100h69zM118 700v-700h-78v700h78z" />
    <glyph glyph-name="Idieresis" unicode="&#xcf;" horiz-adv-x="158" 
d="M51 739h-68v90h68v-90zM175 739h-68v90h68v-90zM118 0h-78v700h78v-700z" />
    <glyph glyph-name="Idotaccent" unicode="&#x130;" horiz-adv-x="158" 
d="M113 739h-68v90h68v-90zM118 0h-78v700h78v-700z" />
    <glyph glyph-name="Igrave" unicode="&#xcc;" horiz-adv-x="158" 
d="M56 842l70 -103h-58l-93 103h81zM118 700v-700h-78v700h78z" />
    <glyph glyph-name="Imacron" unicode="&#x12a;" horiz-adv-x="158" 
d="M178 750h-199v56h199v-56zM118 0h-78v700h78v-700z" />
    <glyph glyph-name="Iogonek" unicode="&#x12e;" horiz-adv-x="158" 
d="M76.5 -34q-9.5 -20 -8.5 -35q0 -15 10.5 -22.5t26.5 -7.5q13 0 22 2.5t18 6.5v-41q-27 -12 -62 -12t-55 14.5t-20 43.5q0 23 16 45.5t45 39.5h-29v700h78v-700h-14q-18 -14 -27.5 -34z" />
    <glyph glyph-name="Itilde" unicode="&#x128;" horiz-adv-x="158" 
d="M130 744q-22 0 -50 16q-10 5 -20.5 9t-19.5 4q-15 0 -25.5 -6.5t-18.5 -22.5l-39 26q24 58 74 58q14 0 25.5 -4t26.5 -12q24 -13 39 -13q13 0 23 6.5t18 22.5l38 -26q-22 -58 -71 -58zM118 0h-78v700h78v-700z" />
    <glyph glyph-name="J" unicode="J" horiz-adv-x="255" 
d="M59 70q41 2 61.5 24.5t20.5 73.5v532h77v-527q0 -170 -149 -174h-25q-15 0 -24 1v71q13 -1 39 -1z" />
    <glyph glyph-name="Jcircumflex" unicode="&#x134;" horiz-adv-x="255" 
d="M46 739l86 101h69l87 -101h-68l-53 60l-53 -60h-68zM69 -1h-25q-15 0 -24 1v71q13 -1 39 -1q41 2 61.5 24.5t20.5 73.5v532h77v-527q0 -170 -149 -174z" />
    <glyph glyph-name="K" unicode="K" horiz-adv-x="409" 
d="M118 235v-235h-78v700h78v-338l186 338h79l-177 -319l183 -381h-80l-150 304z" />
    <glyph glyph-name="L" unicode="L" horiz-adv-x="337" 
d="M40 700h78v-629h200v-71h-278v700z" />
    <glyph glyph-name="Lacute" unicode="&#x139;" horiz-adv-x="337" 
d="M113 739h-54l70 103h77zM40 700h78v-629h200v-71h-278v700z" />
    <glyph glyph-name="Lcaron" unicode="&#x13d;" horiz-adv-x="337" 
d="M40 700h78v-629h200v-71h-278v700zM213 603v97h75v-89l-38 -96h-33l25 88h-29z" />
    <glyph glyph-name="Ldot" unicode="&#x13f;" horiz-adv-x="337" 
d="M40 700h78v-629h200v-71h-278v700zM272 303h-75v97h75v-97z" />
    <glyph glyph-name="Lslash" unicode="&#x141;" horiz-adv-x="348" 
d="M128 71h201v-71h-278v208l-51 -50v72l51 50v420h77v-337l109 113v-72l-109 -113v-220z" />
    <glyph glyph-name="M" unicode="M" horiz-adv-x="523" 
d="M223 1l-116 557v-558h-68v700h109l115 -559l111 559h109v-700h-74v563l-111 -562h-75z" />
    <glyph glyph-name="N" unicode="N" horiz-adv-x="409" 
d="M39 0v700h99l162 -506v506h69v-700h-81l-179 566v-566h-70z" />
    <glyph glyph-name="Nacute" unicode="&#x143;" horiz-adv-x="409" 
d="M213 740h-54l70 102h77zM39 0v700h99l162 -506v506h69v-700h-81l-179 567v-567h-70z" />
    <glyph glyph-name="Ncaron" unicode="&#x147;" horiz-adv-x="409" 
d="M205 782l53 60h68l-86 -101h-69l-87 101h68zM39 0v700h99l162 -506v506h69v-700h-81l-179 566v-566h-70z" />
    <glyph glyph-name="Ntilde" unicode="&#xd1;" horiz-adv-x="409" 
d="M254 746q-13 0 -24 4t-25 12q-24 13 -39 13t-25.5 -6.5t-18.5 -22.5l-39 26q23 58 74 58q14 0 25 -4t26 -12q24 -13 39 -13q28 0 41 29l39 -26q-23 -58 -73 -58zM39 0v700h99l162 -506v506h69v-700h-81l-179 566v-566h-70z" />
    <glyph glyph-name="O" unicode="O" horiz-adv-x="389" 
d="M74.5 660q40.5 47 119.5 47t120 -47t41 -129v-362q0 -82 -41 -129t-120 -47q-78 0 -119 47t-41 129v362q0 82 40.5 129zM132 90q21 -26 62 -26q83 0 83 101v370q0 48 -20.5 74.5t-62.5 26.5q-41 0 -62 -26.5t-21 -74.5v-370q0 -49 21 -75z" />
    <glyph glyph-name="Oacute" unicode="&#xd3;" horiz-adv-x="389" 
d="M200 742h-54l70 103h77zM314 660q41 -47 41 -129v-362q0 -82 -41 -129t-120 -47q-78 0 -119 47t-41 129v362q0 82 40.5 129t119.5 47t120 -47zM132 609.5q-21 -26.5 -21 -74.5v-370q0 -49 21 -75t62 -26q83 0 83 101v370q0 48 -20.5 74.5t-62.5 26.5q-41 0 -62 -26.5z
" />
    <glyph glyph-name="Obreve" unicode="&#x14e;" horiz-adv-x="389" 
d="M270 767q-28 -27 -77 -27q-48 0 -75 27t-28 74h47q3 -52 56 -52q55 0 59 52h47q-1 -47 -29 -74zM314 660q41 -47 41 -129v-362q0 -82 -41 -129t-120 -47q-78 0 -119 47t-41 129v362q0 82 40.5 129t119.5 47t120 -47zM132 609.5q-21 -26.5 -21 -74.5v-370q0 -49 21 -75
t62 -26q83 0 83 101v370q0 48 -20.5 74.5t-62.5 26.5q-41 0 -62 -26.5z" />
    <glyph glyph-name="Ocircumflex" unicode="&#xd4;" horiz-adv-x="389" 
d="M73 741l86 101h69l87 -101h-68l-54 59l-52 -59h-68zM314 660q41 -47 41 -129v-362q0 -82 -41 -129t-120 -47q-78 0 -119 47t-41 129v362q0 82 40.5 129t119.5 47t120 -47zM132 609.5q-21 -26.5 -21 -74.5v-370q0 -49 21 -75t62 -26q83 0 83 101v370q0 48 -20.5 74.5
t-62.5 26.5q-41 0 -62 -26.5z" />
    <glyph glyph-name="Odieresis" unicode="&#xd6;" horiz-adv-x="389" 
d="M166 741h-68v90h68v-90zM290 741h-68v90h68v-90zM314 660q41 -47 41 -129v-362q0 -82 -41 -129t-120 -47q-78 0 -119 47t-41 129v362q0 82 40.5 129t119.5 47t120 -47zM132 609.5q-21 -26.5 -21 -74.5v-370q0 -49 21 -75t62 -26q83 0 83 101v370q0 48 -20.5 74.5
t-62.5 26.5q-41 0 -62 -26.5z" />
    <glyph glyph-name="Ograve" unicode="&#xd2;" horiz-adv-x="389" 
d="M243 742h-57l-93 103h81zM314 660q41 -47 41 -129v-362q0 -82 -41 -129t-120 -47q-78 0 -119 47t-41 129v362q0 82 40.5 129t119.5 47t120 -47zM132 609.5q-21 -26.5 -21 -74.5v-370q0 -49 21 -75t62 -26q83 0 83 101v370q0 48 -20.5 74.5t-62.5 26.5q-41 0 -62 -26.5z
" />
    <glyph glyph-name="Ohungarumlaut" unicode="&#x150;" horiz-adv-x="389" 
d="M150 742h-49l57 103h72zM257 742h-49l57 103h73zM314 660q41 -47 41 -129v-362q0 -82 -41 -129t-120 -47q-78 0 -119 47t-41 129v362q0 82 40.5 129t119.5 47t120 -47zM132 609.5q-21 -26.5 -21 -74.5v-370q0 -49 21 -75t62 -26q83 0 83 101v370q0 48 -20.5 74.5
t-62.5 26.5q-41 0 -62 -26.5z" />
    <glyph glyph-name="Omacron" unicode="&#x14c;" horiz-adv-x="389" 
d="M299 751h-208v55h208v-55zM314 660q41 -47 41 -129v-362q0 -82 -41 -129t-120 -47q-78 0 -119 47t-41 129v362q0 82 40.5 129t119.5 47t120 -47zM132 609.5q-21 -26.5 -21 -74.5v-370q0 -49 21 -75t62 -26q83 0 83 101v370q0 48 -20.5 74.5t-62.5 26.5q-41 0 -62 -26.5z
" />
    <glyph glyph-name="Oslash" unicode="&#xd8;" horiz-adv-x="389" 
d="M355 531v-362q0 -82 -41 -129t-120 -47q-63 0 -102 31l-19 -50l-34 13l25 67q-30 45 -30 115v362q0 82 40.5 129t119.5 47q63 0 103 -31l18 49l35 -13l-25 -66q30 -45 30 -115zM194 636q-41 0 -62 -26.5t-21 -74.5v-355l155 414q-20 42 -72 42zM277 165v353l-155 -413
q21 -41 72 -41q83 0 83 101z" />
    <glyph glyph-name="Oslashacute" unicode="&#x1fe;" horiz-adv-x="389" 
d="M297 845l-93 -103h-55l70 103h78zM355 531v-362q0 -82 -41 -129t-120 -47q-63 0 -102 31l-19 -50l-34 13l25 67q-30 45 -30 115v362q0 82 40.5 129t119.5 47q63 0 103 -31l18 49l35 -13l-25 -66q30 -45 30 -115zM194 636q-41 0 -62 -26.5t-21 -74.5v-355l155 414
q-20 42 -72 42zM277 165v353l-155 -413q21 -41 72 -41q83 0 83 101z" />
    <glyph glyph-name="Otilde" unicode="&#xd5;" horiz-adv-x="389" 
d="M245 745q-22 0 -50 16q-10 5 -20.5 9t-19.5 4q-14 0 -24 -7t-18 -23l-39 27q23 56 74 58q14 0 26 -4.5t27 -12.5q24 -13 39 -13q13 1 22.5 8t17.5 22l38 -27q-21 -57 -73 -57zM314 660q41 -47 41 -129v-362q0 -82 -41 -129t-120 -47q-78 0 -119 47t-41 129v362
q0 82 40.5 129t119.5 47t120 -47zM132 609.5q-21 -26.5 -21 -74.5v-370q0 -49 21 -75t62 -26q83 0 83 101v370q0 48 -20.5 74.5t-62.5 26.5q-41 0 -62 -26.5z" />
    <glyph glyph-name="OE" unicode="&#x152;" horiz-adv-x="577" 
d="M508 320h-161v-249h198v-71h-357q-78 0 -116.5 46t-38.5 128v352q0 82 38.5 128t116.5 46h357v-71h-198v-239h161v-70zM130 603q-19 -26 -19 -73v-360q0 -47 19 -73t59 -26h81v558h-81q-40 0 -59 -26z" />
    <glyph glyph-name="P" unicode="P" horiz-adv-x="374" 
d="M311.5 655.5q38.5 -44.5 38.5 -126.5v-84q0 -169 -163 -169h-69v-276h-78v700h153q80 0 118.5 -44.5zM252 368q21 22 21 72v93q0 49 -19 72.5t-61 23.5h-75v-283h69q44 0 65 22z" />
    <glyph glyph-name="Thorn" unicode="&#xde;" horiz-adv-x="377" 
d="M311.5 554.5q38.5 -44.5 38.5 -127.5v-83q0 -170 -163 -170h-69v-174h-78v700h78v-101h75q80 0 118.5 -44.5zM252 267q21 22 21 72v93q0 48 -19 72t-61 24h-75v-283h69q44 0 65 22z" />
    <glyph glyph-name="Q" unicode="Q" horiz-adv-x="402" 
d="M314 660q41 -47 41 -129v-362q0 -67 -27 -109q6 -12 16 -17t27 -5h10v-69h-13q-64 0 -89 45q-36 -21 -85 -21q-78 0 -119 47t-41 129v362q0 82 40.5 129t119.5 47t120 -47zM132 609.5q-21 -26.5 -21 -74.5v-370q0 -49 21 -75t62 -26q83 0 83 101v370q0 48 -20.5 74.5
t-62.5 26.5q-41 0 -62 -26.5z" />
    <glyph glyph-name="R" unicode="R" horiz-adv-x="394" 
d="M314.5 660q37.5 -40 37.5 -120v-57q0 -58 -21 -94t-66 -50q46 -14 67 -50.5t21 -95.5v-109q0 -29 2.5 -48.5t11.5 -35.5h-79q-7 16 -10 33.5t-3 51.5v110q0 57 -25.5 80.5t-76.5 23.5h-55v-299h-78v700h156q81 0 118.5 -40zM250.5 391q24.5 21 24.5 75v67q0 48 -19 72
t-62 24h-76v-259h58q50 0 74.5 21z" />
    <glyph glyph-name="Racute" unicode="&#x154;" horiz-adv-x="394" 
d="M194 742h-54l69 103h78zM314.5 660q37.5 -40 37.5 -120v-57q0 -58 -21 -94t-66 -50q46 -14 67 -50.5t21 -95.5v-109q0 -29 2.5 -48.5t11.5 -35.5h-79q-7 16 -10 33.5t-3 51.5v110q0 57 -25.5 80.5t-76.5 23.5h-55v-299h-78v700h156q81 0 118.5 -40zM250.5 391
q24.5 21 24.5 75v67q0 48 -19 72t-62 24h-76v-259h58q50 0 74.5 21z" />
    <glyph glyph-name="Rcaron" unicode="&#x158;" horiz-adv-x="394" 
d="M186 782l53 60h68l-87 -100h-69l-86 100h68zM314.5 660q37.5 -40 37.5 -120v-57q0 -58 -21 -94t-66 -50q46 -14 67 -50.5t21 -95.5v-109q0 -29 2.5 -48.5t11.5 -35.5h-79q-7 16 -10 33.5t-3 51.5v110q0 57 -25.5 80.5t-76.5 23.5h-55v-299h-78v700h156q81 0 118.5 -40z
M250.5 391q24.5 21 24.5 75v67q0 48 -19 72t-62 24h-76v-259h58q50 0 74.5 21z" />
    <glyph glyph-name="S" unicode="S" horiz-adv-x="372" 
d="M303.5 660.5q39.5 -46.5 39.5 -128.5v-19h-74v23q0 100 -80 100t-80 -99q0 -50 27 -84.5t81 -76.5q43 -36 67.5 -61t42 -62t17.5 -85q0 -82 -40 -128.5t-118 -46.5t-117.5 46.5t-39.5 128.5v40h73v-44q0 -48 20.5 -74t61.5 -26t61.5 26t20.5 74q0 49 -26.5 83t-80.5 77
q-41 34 -66.5 59.5t-43 63t-17.5 85.5q0 83 39 129t116 46t116.5 -46.5z" />
    <glyph glyph-name="Sacute" unicode="&#x15a;" horiz-adv-x="372" 
d="M196 742h-54l69 103h78zM303.5 660.5q39.5 -46.5 39.5 -128.5v-19h-74v23q0 100 -80 100t-80 -99q0 -50 27 -84.5t81 -76.5q43 -36 67.5 -61t42 -62t17.5 -85q0 -82 -40 -128.5t-118 -46.5t-117.5 46.5t-39.5 128.5v40h73v-44q0 -48 20.5 -74t61.5 -26t61.5 26t20.5 74
q0 49 -26.5 83t-80.5 77q-41 34 -66.5 59.5t-43 63t-17.5 85.5q0 83 39 129t116 46t116.5 -46.5z" />
    <glyph glyph-name="Scaron" unicode="&#x160;" horiz-adv-x="372" 
d="M187 782l53 60h69l-87 -100h-69l-86 100h68zM303.5 660.5q39.5 -46.5 39.5 -128.5v-19h-74v23q0 100 -80 100t-80 -99q0 -50 27 -84.5t81 -76.5q43 -36 67.5 -61t42 -62t17.5 -85q0 -82 -40 -128.5t-118 -46.5t-117.5 46.5t-39.5 128.5v40h73v-44q0 -48 20.5 -74
t61.5 -26t61.5 26t20.5 74q0 49 -26.5 83t-80.5 77q-41 34 -66.5 59.5t-43 63t-17.5 85.5q0 83 39 129t116 46t116.5 -46.5z" />
    <glyph glyph-name="Scedilla" unicode="&#x15e;" horiz-adv-x="372" 
d="M255.5 -50.5q19.5 -13.5 19.5 -37.5q0 -30 -25 -47t-70 -17q-43 0 -67.5 16.5t-24.5 45.5v8h51v-7q0 -12 11 -20t30 -9q20 0 31.5 8.5t11.5 23.5q0 14 -13 22t-36 8h-9v50q-69 6 -102.5 51.5t-33.5 122.5v40h73v-44q0 -48 20.5 -74t61.5 -26t61.5 26t20.5 74
q0 49 -26.5 83t-80.5 77q-41 34 -66.5 59.5t-43 63t-17.5 85.5q0 83 39 129t116 46t116.5 -46.5t39.5 -128.5v-19h-74v23q0 100 -80 100t-80 -99q0 -50 27 -84.5t81 -76.5q43 -36 67.5 -61t42 -62t17.5 -85q0 -78 -36 -124t-107 -50v-31q35 0 54.5 -13.5z" />
    <glyph glyph-name="Scircumflex" unicode="&#x15c;" horiz-adv-x="372" 
d="M67 741l87 101h69l86 -101h-68l-53 59l-53 -59h-68zM303.5 660.5q39.5 -46.5 39.5 -128.5v-19h-74v23q0 100 -80 100t-80 -99q0 -50 27 -84.5t81 -76.5q43 -36 67.5 -61t42 -62t17.5 -85q0 -82 -40 -128.5t-118 -46.5t-117.5 46.5t-39.5 128.5v40h73v-44q0 -48 20.5 -74
t61.5 -26t61.5 26t20.5 74q0 49 -26.5 83t-80.5 77q-41 34 -66.5 59.5t-43 63t-17.5 85.5q0 83 39 129t116 46t116.5 -46.5z" />
    <glyph glyph-name="T" unicode="T" horiz-adv-x="363" 
d="M142 629h-129v71h336v-71h-129v-629h-78v629z" />
    <glyph glyph-name="Tbar" unicode="&#x166;" horiz-adv-x="372" 
d="M296 418h-71v-418h-78v418h-71v58h71v153h-129v71h336v-71h-129v-153h71v-58z" />
    <glyph glyph-name="Tcaron" unicode="&#x164;" horiz-adv-x="372" 
d="M185 780l54 60h68l-87 -101h-69l-86 101h68zM147 629h-129v71h336v-71h-129v-629h-78v629z" />
    <glyph glyph-name="U" unicode="U" 
d="M196 64q41 0 61 26t20 75v535h73v-531q0 -83 -39 -130t-118 -47q-78 0 -117 47.5t-39 129.5v531h77v-535q0 -101 82 -101z" />
    <glyph glyph-name="Uacute" unicode="&#xda;" 
d="M203 742h-54l70 103h77zM311 39q-39 -47 -118 -47q-78 0 -117 47.5t-39 129.5v531h77v-535q0 -101 82 -101q41 0 61 26t20 75v535h73v-531q0 -83 -39 -130z" />
    <glyph glyph-name="Ubreve" unicode="&#x16c;" 
d="M270.5 763.5q-27.5 -27.5 -76.5 -27.5q-48 0 -75.5 27t-28.5 75h47q2 -29 16.5 -41t40.5 -12q54 0 58 53h47q-1 -47 -28.5 -74.5zM311 39q-39 -47 -118 -47q-78 0 -117 47.5t-39 129.5v531h77v-535q0 -101 82 -101q41 0 61 26t20 75v535h73v-531q0 -83 -39 -130z" />
    <glyph glyph-name="Ucircumflex" unicode="&#xdb;" 
d="M74 741l86 101h69l87 -101h-68l-54 59l-52 -59h-68zM311 39q-39 -47 -118 -47q-78 0 -117 47.5t-39 129.5v531h77v-535q0 -101 82 -101q41 0 61 26t20 75v535h73v-531q0 -83 -39 -130z" />
    <glyph glyph-name="Udieresis" unicode="&#xdc;" 
d="M167 740h-69v90h69v-90zM291 740h-68v90h68v-90zM311 39q-39 -47 -118 -47q-78 0 -117 47.5t-39 129.5v531h77v-535q0 -101 82 -101q41 0 61 26t20 75v535h73v-531q0 -83 -39 -130z" />
    <glyph glyph-name="Ugrave" unicode="&#xd9;" 
d="M243 739h-58l-93 103h81zM311 39q-39 -47 -118 -47q-78 0 -117 47.5t-39 129.5v531h77v-535q0 -101 82 -101q41 0 61 26t20 75v535h73v-531q0 -83 -39 -130z" />
    <glyph glyph-name="Uhungarumlaut" unicode="&#x170;" 
d="M149 741h-49l57 103h72zM256 741h-48l56 103h73zM311 39q-39 -47 -118 -47q-78 0 -117 47.5t-39 129.5v531h77v-535q0 -101 82 -101q41 0 61 26t20 75v535h73v-531q0 -83 -39 -130z" />
    <glyph glyph-name="Umacron" unicode="&#x16a;" 
d="M298 750h-205v56h205v-56zM311 39q-39 -47 -118 -47q-78 0 -117 47.5t-39 129.5v531h77v-535q0 -101 82 -101q41 0 61 26t20 75v535h73v-531q0 -83 -39 -130z" />
    <glyph glyph-name="Uogonek" unicode="&#x172;" 
d="M333.5 71q-16.5 -42 -58.5 -66q-19 -15 -29.5 -36.5t-9.5 -37.5q0 -15 10.5 -22.5t26.5 -7.5q20 0 40 9v-41q-27 -12 -62 -12t-55 14.5t-20 43.5q0 21 14.5 42.5t38.5 38.5q-15 -4 -36 -4q-78 0 -117 47.5t-39 129.5v531h77v-535q0 -101 82 -101q41 0 61 26t20 75v535h73
v-531q0 -56 -16.5 -98z" />
    <glyph glyph-name="Uring" unicode="&#x16e;" 
d="M248.5 860q21.5 -21 21.5 -52t-21.5 -52t-52.5 -21t-52 21t-21 52t21 52t52 21t52.5 -21zM170.5 834q-10.5 -10 -10.5 -26t10.5 -26t25.5 -10t26 10.5t11 25.5t-11 25.5t-26 10.5t-25.5 -10zM311 39q-39 -47 -118 -47q-78 0 -117 47.5t-39 129.5v531h77v-535
q0 -101 82 -101q41 0 61 26t20 75v535h73v-531q0 -83 -39 -130z" />
    <glyph glyph-name="Utilde" unicode="&#x168;" 
d="M243 745q-13 0 -24 4t-26 12q-24 13 -39 13q-14 0 -24 -7t-18 -23l-39 27q22 56 73 58q14 0 26 -4.5t27 -12.5q24 -13 39 -13q26 2 40 30l39 -27q-22 -57 -74 -57zM311 39q-39 -47 -118 -47q-78 0 -117 47.5t-39 129.5v531h77v-535q0 -101 82 -101q41 0 61 26t20 75v535
h73v-531q0 -83 -39 -130z" />
    <glyph glyph-name="V" unicode="V" horiz-adv-x="418" 
d="M213 91l113 609h72l-131 -700h-115l-132 700h79z" />
    <glyph glyph-name="W" unicode="W" horiz-adv-x="583" 
d="M119 0l-96 700h76l82 -596l78 595h77l77 -596l79 597h68l-95 -700h-103l-67 475l-69 -475h-107z" />
    <glyph glyph-name="Wacute" unicode="&#x1e82;" horiz-adv-x="583" 
d="M298 739h-55l70 103h78zM119 0l-96 700h76l82 -596l78 595h77l77 -596l79 597h68l-95 -700h-103l-67 475l-69 -475h-107z" />
    <glyph glyph-name="Wcircumflex" unicode="&#x174;" horiz-adv-x="583" 
d="M172 740l86 101h69l87 -101h-68l-53 59l-53 -59h-68zM119 0l-96 700h76l82 -596l78 595h77l77 -596l79 597h68l-95 -700h-103l-67 475l-69 -475h-107z" />
    <glyph glyph-name="Wdieresis" unicode="&#x1e84;" horiz-adv-x="583" 
d="M265 741h-68v90h68v-90zM389 741h-68v90h68v-90zM119 0l-96 700h76l82 -596l78 595h77l77 -596l79 597h68l-95 -700h-103l-67 475l-69 -475h-107z" />
    <glyph glyph-name="Wgrave" unicode="&#x1e80;" horiz-adv-x="583" 
d="M346 742h-57l-93 103h81zM119 0l-96 700h76l82 -596l78 595h77l77 -596l79 597h68l-95 -700h-103l-67 475l-69 -475h-107z" />
    <glyph glyph-name="X" unicode="X" horiz-adv-x="435" 
d="M97 0h-74l141 361l-132 339h81l108 -280l109 280h73l-131 -339l140 -361h-82l-116 302z" />
    <glyph glyph-name="Y" unicode="Y" horiz-adv-x="406" 
d="M16 700h81l109 -344l110 344h74l-149 -449v-251h-77v251z" />
    <glyph glyph-name="Yacute" unicode="&#xdd;" horiz-adv-x="406" 
d="M214 739h-54l70 103h77zM16 700h81l109 -344l110 344h74l-149 -449v-251h-77v251z" />
    <glyph glyph-name="Ycircumflex" unicode="&#x176;" horiz-adv-x="406" 
d="M85 740l86 100h69l87 -100h-68l-53 59l-53 -59h-68zM16 700h81l109 -344l110 344h74l-149 -449v-251h-77v251z" />
    <glyph glyph-name="Ydieresis" unicode="&#x178;" horiz-adv-x="406" 
d="M177 739h-68v90h68v-90zM301 739h-68v90h68v-90zM16 700h81l109 -344l110 344h74l-149 -449v-251h-77v251z" />
    <glyph glyph-name="Ygrave" unicode="&#x1ef2;" horiz-adv-x="406" 
d="M255 742h-57l-93 103h81zM16 700h81l109 -344l110 344h74l-149 -449v-251h-77v251z" />
    <glyph glyph-name="Z" unicode="Z" horiz-adv-x="379" 
d="M29 0v70l240 559h-229v71h309v-70l-241 -559h239v-71h-318z" />
    <glyph glyph-name="Zacute" unicode="&#x179;" horiz-adv-x="379" 
d="M204 742h-54l69 103h78zM29 0v70l240 559h-229v71h309v-70l-241 -559h239v-71h-318z" />
    <glyph glyph-name="Zcaron" unicode="&#x17d;" horiz-adv-x="379" 
d="M193 782l54 60h68l-87 -101h-69l-86 101h68zM29 0v70l240 559h-229v71h309v-70l-241 -559h239v-71h-318z" />
    <glyph glyph-name="Zdotaccent" unicode="&#x17b;" horiz-adv-x="379" 
d="M231 742h-68v90h68v-90zM29 0v70l240 559h-229v71h309v-70l-241 -559h239v-71h-318z" />
    <glyph glyph-name="uni0122" unicode="&#x122;" horiz-adv-x="383" 
d="M309.5 660q39.5 -47 39.5 -129v-60h-74v64q0 101 -82 101q-41 0 -61.5 -26.5t-20.5 -74.5v-370q0 -48 20.5 -74.5t61.5 -26.5q82 0 82 101v140h-72v70h146v-206q0 -82 -39.5 -129t-118.5 -47q-78 0 -117.5 47t-39.5 129v362q0 82 39.5 129t117.5 47q79 0 118.5 -47z
M158 -121v88h66v-81l-35 -63h-29l23 56h-25z" />
    <glyph glyph-name="uni0136" unicode="&#x136;" horiz-adv-x="409" 
d="M118 235v-235h-78v700h78v-338l186 338h79l-177 -319l183 -381h-80l-150 304zM172 -121v88h66v-81l-35 -63h-29l23 56h-25z" />
    <glyph glyph-name="uni013B" unicode="&#x13b;" horiz-adv-x="337" 
d="M40 700h78v-629h200v-71h-278v700zM149 -122v87h66v-81l-35 -63h-29l23 57h-25z" />
    <glyph glyph-name="uni0145" unicode="&#x145;" horiz-adv-x="409" 
d="M39 0v700h99l162 -506v506h69v-700h-81l-179 566v-566h-70zM171 -121v88h65v-81l-35 -63h-28l23 56h-25z" />
    <glyph glyph-name="uni0156" unicode="&#x156;" horiz-adv-x="394" 
d="M314.5 660q37.5 -40 37.5 -120v-57q0 -58 -21 -94t-66 -50q46 -14 67 -50.5t21 -95.5v-109q0 -29 2.5 -48.5t11.5 -35.5h-79q-7 16 -10 33.5t-3 51.5v110q0 57 -25.5 80.5t-76.5 23.5h-55v-299h-78v700h156q81 0 118.5 -40zM250.5 391q24.5 21 24.5 75v67q0 48 -19 72
t-62 24h-76v-259h58q50 0 74.5 21zM164 -120v87h65v-81l-35 -63h-29l23 57h-24z" />
    <glyph glyph-name="uni0162" unicode="&#x162;" horiz-adv-x="372" 
d="M204 -38q30 0 48.5 -14.5t18.5 -41.5q0 -37 -24.5 -55.5t-60.5 -18.5t-62.5 17t-26.5 49v8h47v-8q0 -15 11.5 -22t26.5 -7q17 0 29 8.5t12 25.5q0 18 -12.5 25.5t-34.5 7.5h-9v64h-20v629h-129v71h336v-71h-129v-629h-21v-38z" />
    <glyph glyph-name="uni0218" unicode="&#x218;" horiz-adv-x="372" 
d="M303.5 660.5q39.5 -46.5 39.5 -128.5v-19h-74v23q0 100 -80 100t-80 -99q0 -50 27 -84.5t81 -76.5q43 -36 67.5 -61t42 -62t17.5 -85q0 -82 -40 -128.5t-118 -46.5t-117.5 46.5t-39.5 128.5v40h73v-44q0 -48 20.5 -74t61.5 -26t61.5 26t20.5 74q0 49 -26.5 83t-80.5 77
q-41 34 -66.5 59.5t-43 63t-17.5 85.5q0 83 39 129t116 46t116.5 -46.5zM151 -121v88h66v-81l-35 -63h-29l23 56h-25z" />
    <glyph glyph-name="uni021A" unicode="&#x21a;" horiz-adv-x="372" 
d="M147 629h-129v71h336v-71h-129v-629h-78v629zM153 -121v88h66v-81l-35 -63h-29l23 56h-25z" />
    <glyph glyph-name="uni1E02" unicode="&#x1e02;" horiz-adv-x="392" 
d="M212 740h-68v90h68v-90zM313 662q36 -38 36 -117v-33q0 -58 -19 -91.5t-63 -47.5q94 -26 94 -150v-59q0 -80 -39.5 -122t-120.5 -42h-161v700h157q80 0 116 -38zM249.5 423q22.5 20 22.5 73v41q0 47 -18 69.5t-59 22.5h-77v-226h60q49 0 71.5 20zM264 94q20 23 20 72v62
q0 57 -23 80.5t-75 23.5h-68v-261h83q43 0 63 23z" />
    <glyph glyph-name="uni1E0A" unicode="&#x1e0a;" horiz-adv-x="396" 
d="M219 740h-68v90h68v-90zM323.5 654.5q39.5 -45.5 39.5 -128.5v-353q0 -82 -39.5 -127.5t-119.5 -45.5h-164v700h164q80 0 119.5 -45.5zM286 170v360q0 99 -84 99h-84v-558h85q83 0 83 99z" />
    <glyph glyph-name="uni1E1E" unicode="&#x1e1e;" horiz-adv-x="340" 
d="M211 739h-68v90h68v-90zM279 303h-161v-303h-78v700h278v-71h-200v-255h161v-71z" />
    <glyph glyph-name="uni1E40" unicode="&#x1e40;" horiz-adv-x="523" 
d="M295 741h-68v91h68v-91zM223 1l-116 557v-558h-68v700h109l115 -559l111 559h109v-700h-74v563l-111 -562h-75z" />
    <glyph glyph-name="uni1E56" unicode="&#x1e56;" horiz-adv-x="371" 
d="M214 740h-68v90h68v-90zM311.5 655.5q38.5 -44.5 38.5 -126.5v-84q0 -169 -163 -169h-69v-276h-78v700h153q80 0 118.5 -44.5zM252 368q21 22 21 72v93q0 49 -19 72.5t-61 23.5h-75v-283h69q44 0 65 22z" />
    <glyph glyph-name="uni1E60" unicode="&#x1e60;" horiz-adv-x="372" 
d="M220 740h-68v90h68v-90zM303.5 660.5q39.5 -46.5 39.5 -128.5v-19h-74v23q0 100 -80 100t-80 -99q0 -50 27 -84.5t81 -76.5q43 -36 67.5 -61t42 -62t17.5 -85q0 -82 -40 -128.5t-118 -46.5t-117.5 46.5t-39.5 128.5v40h73v-44q0 -48 20.5 -74t61.5 -26t61.5 26t20.5 74
q0 49 -26.5 83t-80.5 77q-41 34 -66.5 59.5t-43 63t-17.5 85.5q0 83 39 129t116 46t116.5 -46.5z" />
    <glyph glyph-name="uni1E6A" unicode="&#x1e6a;" horiz-adv-x="372" 
d="M220 740h-68v90h68v-90zM147 629h-129v71h336v-71h-129v-629h-78v629z" />
    <glyph glyph-name="a" unicode="a" horiz-adv-x="422" 
d="M92 0h-72l134 700h113l134 -700h-78l-27 141h-177zM285 208l-79 404l-77 -404h156z" />
    <glyph glyph-name="aacute" unicode="&#xe1;" horiz-adv-x="422" 
d="M213 737h-55l70 103h77zM92 0h-72l134 700h113l134 -700h-78l-27 141h-177zM285 208l-79 404l-77 -404h156z" />
    <glyph glyph-name="abreve" unicode="&#x103;" horiz-adv-x="422" 
d="M286 760q-28 -27 -77 -27q-48 0 -75 27t-28 74h47q3 -52 56 -52q55 0 58 52h47q0 -47 -28 -74zM92 0h-72l134 700h113l134 -700h-78l-27 141h-177zM285 208l-79 404l-77 -404h156z" />
    <glyph glyph-name="acircumflex" unicode="&#xe2;" horiz-adv-x="422" 
d="M89 737l86 100h70l86 -100h-68l-53 59l-53 -59h-68zM92 0h-72l134 700h113l134 -700h-78l-27 141h-177zM285 208l-79 404l-77 -404h156z" />
    <glyph glyph-name="adieresis" unicode="&#xe4;" horiz-adv-x="422" 
d="M182 737h-68v90h68v-90zM306 737h-68v90h68v-90zM92 0h-72l134 700h113l134 -700h-78l-27 141h-177zM285 208l-79 404l-77 -404h156z" />
    <glyph glyph-name="agrave" unicode="&#xe0;" horiz-adv-x="422" 
d="M260 737h-57l-93 103h80zM92 0h-72l134 700h113l134 -700h-78l-27 141h-177zM285 208l-79 404l-77 -404h156z" />
    <glyph glyph-name="amacron" unicode="&#x101;" horiz-adv-x="422" 
d="M316 750h-212v56h212v-56zM92 0h-72l134 700h113l134 -700h-78l-27 141h-177zM285 208l-79 404l-77 -404h156z" />
    <glyph glyph-name="aogonek" unicode="&#x105;" horiz-adv-x="422" 
d="M347 -33q-10 -19 -10 -34q0 -16 10.5 -24t26.5 -8q20 0 40 9v-41q-27 -12 -62 -12t-55 14.5t-20 43.5q0 21 12.5 41.5t35.5 36.5l-29 148h-177l-27 -141h-72l134 700h113l134 -700h-28q-16 -14 -26 -33zM285 208l-79 404l-77 -404h156z" />
    <glyph glyph-name="aring" unicode="&#xe5;" horiz-adv-x="422" 
d="M262 862q21 -21 21 -52t-21 -52t-52 -21q-32 0 -53 21t-21 52t21.5 52t52.5 21t52 -21zM183.5 835.5q-10.5 -10.5 -10.5 -25.5q0 -16 10.5 -26t26.5 -10q15 0 25.5 10t10.5 26q0 15 -10.5 25.5t-25.5 10.5q-16 0 -26.5 -10.5zM92 0h-72l134 700h113l134 -700h-78l-27 141
h-177zM285 208l-79 404l-77 -404h156z" />
    <glyph glyph-name="atilde" unicode="&#xe3;" horiz-adv-x="422" 
d="M187 822q11 -4 27 -13q24 -13 39 -13q26 2 40 30l39 -27q-23 -57 -73 -57q-14 0 -25 4t-26 12q-24 13 -39 13q-14 0 -24 -6.5t-18 -23.5l-39 27q22 56 73 58q15 0 26 -4zM92 0h-72l134 700h113l134 -700h-78l-27 141h-177zM285 208l-79 404l-77 -404h156z" />
    <glyph glyph-name="ae" unicode="&#xe6;" horiz-adv-x="585" 
d="M516 320h-161v-249h198v-71h-275v142h-143l-45 -142h-74l218 700h319v-71h-198v-239h161v-70zM278 210v392l-125 -392h125z" />
    <glyph glyph-name="aeacute" unicode="&#x1fd;" horiz-adv-x="585" 
d="M317 741h-54l70 103h77zM516 320h-161v-249h198v-71h-275v142h-143l-45 -142h-74l218 700h319v-71h-198v-239h161v-70zM278 210v392l-125 -392h125z" />
    <glyph glyph-name="b" unicode="b" horiz-adv-x="392" 
d="M313 662q36 -38 36 -117v-33q0 -58 -19 -91.5t-63 -47.5q94 -26 94 -150v-59q0 -80 -39.5 -122t-120.5 -42h-161v700h157q80 0 116 -38zM249.5 423q22.5 20 22.5 73v41q0 47 -18 69.5t-59 22.5h-77v-226h60q49 0 71.5 20zM264 94q20 23 20 72v62q0 57 -23 80.5t-75 23.5
h-68v-261h83q43 0 63 23z" />
    <glyph glyph-name="c" unicode="c" horiz-adv-x="380" 
d="M309.5 660q39.5 -47 39.5 -129v-63h-74v67q0 101 -82 101q-41 0 -61.5 -26.5t-20.5 -74.5v-370q0 -48 20.5 -74.5t61.5 -26.5q82 0 82 101v91h74v-87q0 -82 -39.5 -129t-118.5 -47q-78 0 -117.5 47t-39.5 129v362q0 82 39.5 129t117.5 47q79 0 118.5 -47z" />
    <glyph glyph-name="cacute" unicode="&#x107;" horiz-adv-x="380" 
d="M200 742h-55l70 103h78zM309.5 660q39.5 -47 39.5 -129v-63h-74v67q0 101 -82 101q-41 0 -61.5 -26.5t-20.5 -74.5v-370q0 -48 20.5 -74.5t61.5 -26.5q82 0 82 101v91h74v-87q0 -82 -39.5 -129t-118.5 -47q-78 0 -117.5 47t-39.5 129v362q0 82 39.5 129t117.5 47
q79 0 118.5 -47z" />
    <glyph glyph-name="ccaron" unicode="&#x10d;" horiz-adv-x="380" 
d="M193 781l53 60h69l-87 -100h-69l-86 100h68zM309.5 660q39.5 -47 39.5 -129v-63h-74v67q0 101 -82 101q-41 0 -61.5 -26.5t-20.5 -74.5v-370q0 -48 20.5 -74.5t61.5 -26.5q82 0 82 101v91h74v-87q0 -82 -39.5 -129t-118.5 -47q-78 0 -117.5 47t-39.5 129v362
q0 82 39.5 129t117.5 47q79 0 118.5 -47z" />
    <glyph glyph-name="ccedilla" unicode="&#xe7;" horiz-adv-x="380" 
d="M309.5 660q39.5 -47 39.5 -129v-63h-74v67q0 101 -82 101q-41 0 -61.5 -26.5t-20.5 -74.5v-370q0 -48 20.5 -74.5t61.5 -26.5q82 0 82 101v91h74v-87q0 -77 -35.5 -124t-105.5 -51v-31q35 0 54.5 -13.5t19.5 -37.5q0 -30 -25 -47t-70 -17q-43 0 -67.5 16.5t-24.5 45.5v8
h51v-7q0 -12 11 -20t30 -9q20 0 31.5 8.5t11.5 23.5q0 14 -13 22t-36 8h-9v50q-69 5 -103.5 51.5t-34.5 123.5v362q0 82 39.5 129t117.5 47q79 0 118.5 -47z" />
    <glyph glyph-name="ccircumflex" unicode="&#x109;" horiz-adv-x="380" 
d="M72 740l86 101h69l87 -101h-68l-53 59l-53 -59h-68zM309.5 660q39.5 -47 39.5 -129v-63h-74v67q0 101 -82 101q-41 0 -61.5 -26.5t-20.5 -74.5v-370q0 -48 20.5 -74.5t61.5 -26.5q82 0 82 101v91h74v-87q0 -82 -39.5 -129t-118.5 -47q-78 0 -117.5 47t-39.5 129v362
q0 82 39.5 129t117.5 47q79 0 118.5 -47z" />
    <glyph glyph-name="cdotaccent" unicode="&#x10b;" horiz-adv-x="380" 
d="M225 738h-68v90h68v-90zM309.5 660q39.5 -47 39.5 -129v-63h-74v67q0 101 -82 101q-41 0 -61.5 -26.5t-20.5 -74.5v-370q0 -48 20.5 -74.5t61.5 -26.5q82 0 82 101v91h74v-87q0 -82 -39.5 -129t-118.5 -47q-78 0 -117.5 47t-39.5 129v362q0 82 39.5 129t117.5 47
q79 0 118.5 -47z" />
    <glyph glyph-name="d" unicode="d" horiz-adv-x="396" 
d="M323.5 654.5q39.5 -45.5 39.5 -128.5v-353q0 -82 -39.5 -127.5t-119.5 -45.5h-164v700h164q80 0 119.5 -45.5zM286 170v360q0 99 -84 99h-84v-558h85q83 0 83 99z" />
    <glyph glyph-name="eth" unicode="&#xf0;" horiz-adv-x="396" 
d="M323.5 654.5q39.5 -45.5 39.5 -128.5v-353q0 -82 -39.5 -127.5t-119.5 -45.5h-164v318h-39v63h39v319h164q80 0 119.5 -45.5zM118 318v-247h85q83 0 83 99v360q0 99 -84 99h-84v-248h79v-63h-79z" />
    <glyph glyph-name="dcaron" unicode="&#x10f;" horiz-adv-x="396" 
d="M188 779l53 60h69l-87 -100h-69l-87 100h68zM323.5 654.5q39.5 -45.5 39.5 -128.5v-353q0 -82 -39.5 -127.5t-119.5 -45.5h-164v700h164q80 0 119.5 -45.5zM286 170v360q0 99 -84 99h-84v-558h85q83 0 83 99z" />
    <glyph glyph-name="dcroat" unicode="&#x111;" horiz-adv-x="396" 
d="M323.5 654.5q39.5 -45.5 39.5 -128.5v-353q0 -82 -39.5 -127.5t-119.5 -45.5h-164v318h-39v63h39v319h164q80 0 119.5 -45.5zM118 318v-247h85q83 0 83 99v360q0 99 -84 99h-84v-248h79v-63h-79z" />
    <glyph glyph-name="e" unicode="e" horiz-adv-x="360" 
d="M289 320h-171v-249h210v-71h-288v700h288v-71h-210v-239h171v-70z" />
    <glyph glyph-name="eacute" unicode="&#xe9;" horiz-adv-x="360" 
d="M190 739h-54l70 103h77zM289 320h-171v-249h210v-71h-288v700h288v-71h-210v-239h171v-70z" />
    <glyph glyph-name="ebreve" unicode="&#x115;" horiz-adv-x="360" 
d="M258 766q-28 -27 -77 -27q-48 0 -75 27t-28 74h47q3 -52 56 -52q55 0 59 52h47q-1 -47 -29 -74zM289 320h-171v-249h210v-71h-288v700h288v-71h-210v-239h171v-70z" />
    <glyph glyph-name="ecaron" unicode="&#x11b;" horiz-adv-x="360" 
d="M183 779l54 60h68l-87 -100h-69l-86 100h68zM289 320h-171v-249h210v-71h-288v700h288v-71h-210v-239h171v-70z" />
    <glyph glyph-name="ecircumflex" unicode="&#xea;" horiz-adv-x="360" 
d="M62 739l86 101h69l87 -101h-68l-54 60l-52 -60h-68zM289 320h-171v-249h210v-71h-288v700h288v-71h-210v-239h171v-70z" />
    <glyph glyph-name="edieresis" unicode="&#xeb;" horiz-adv-x="360" 
d="M155 739h-68v90h68v-90zM279 739h-68v90h68v-90zM289 320h-171v-249h210v-71h-288v700h288v-71h-210v-239h171v-70z" />
    <glyph glyph-name="edotaccent" unicode="&#x117;" horiz-adv-x="360" 
d="M218 740h-68v90h68v-90zM289 320h-171v-249h210v-71h-288v700h288v-71h-210v-239h171v-70z" />
    <glyph glyph-name="egrave" unicode="&#xe8;" horiz-adv-x="360" 
d="M236 742h-57l-93 103h81zM289 320h-171v-249h210v-71h-288v700h288v-71h-210v-239h171v-70z" />
    <glyph glyph-name="emacron" unicode="&#x113;" horiz-adv-x="360" 
d="M286 752h-209v55h209v-55zM289 320h-171v-249h210v-71h-288v700h288v-71h-210v-239h171v-70z" />
    <glyph glyph-name="eogonek" unicode="&#x119;" horiz-adv-x="360" 
d="M289 320h-171v-249h210v-71h-33q-18 -14 -27.5 -33.5t-9.5 -35.5q1 -15 11.5 -22.5t26.5 -7.5q13 0 21 2t18 7v-41q-27 -12 -61 -12q-35 0 -55 14t-21 42q0 24 16.5 46.5t44.5 40.5h-219v700h288v-71h-210v-239h171v-70z" />
    <glyph glyph-name="f" unicode="f" horiz-adv-x="340" 
d="M279 303h-161v-303h-78v700h278v-71h-200v-255h161v-71z" />
    <glyph glyph-name="g" unicode="g" horiz-adv-x="383" 
d="M309.5 660q39.5 -47 39.5 -129v-60h-74v64q0 101 -82 101q-41 0 -61.5 -26.5t-20.5 -74.5v-370q0 -48 20.5 -74.5t61.5 -26.5q82 0 82 101v140h-72v70h146v-206q0 -82 -39.5 -129t-118.5 -47q-78 0 -117.5 47t-39.5 129v362q0 82 39.5 129t117.5 47q79 0 118.5 -47z" />
    <glyph glyph-name="gbreve" unicode="&#x11f;" horiz-adv-x="383" 
d="M267.5 767q-27.5 -27 -76.5 -27t-76 27t-28 74h47q4 -52 57 -52q54 0 58 52h47q-1 -47 -28.5 -74zM309.5 660q39.5 -47 39.5 -129v-60h-74v64q0 101 -82 101q-41 0 -61.5 -26.5t-20.5 -74.5v-370q0 -48 20.5 -74.5t61.5 -26.5q82 0 82 101v140h-72v70h146v-206
q0 -82 -39.5 -129t-118.5 -47q-78 0 -117.5 47t-39.5 129v362q0 82 39.5 129t117.5 47q79 0 118.5 -47z" />
    <glyph glyph-name="gcircumflex" unicode="&#x11d;" horiz-adv-x="383" 
d="M71 742l86 100h69l87 -100h-68l-54 59l-52 -59h-68zM309.5 660q39.5 -47 39.5 -129v-60h-74v64q0 101 -82 101q-41 0 -61.5 -26.5t-20.5 -74.5v-370q0 -48 20.5 -74.5t61.5 -26.5q82 0 82 101v140h-72v70h146v-206q0 -82 -39.5 -129t-118.5 -47q-78 0 -117.5 47
t-39.5 129v362q0 82 39.5 129t117.5 47q79 0 118.5 -47z" />
    <glyph glyph-name="gdotaccent" unicode="&#x121;" horiz-adv-x="383" 
d="M228 740h-68v90h68v-90zM309.5 660q39.5 -47 39.5 -129v-60h-74v64q0 101 -82 101q-41 0 -61.5 -26.5t-20.5 -74.5v-370q0 -48 20.5 -74.5t61.5 -26.5q82 0 82 101v140h-72v70h146v-206q0 -82 -39.5 -129t-118.5 -47q-78 0 -117.5 47t-39.5 129v362q0 82 39.5 129
t117.5 47q79 0 118.5 -47z" />
    <glyph glyph-name="h" unicode="h" horiz-adv-x="408" 
d="M118 0h-78v700h78v-315h172v315h78v-700h-78v315h-172v-315z" />
    <glyph glyph-name="hbar" unicode="&#x127;" horiz-adv-x="415" 
d="M372 0h-79v315h-172v-315h-78v514h-36v58h36v128h78v-128h172v128h79v-128h36v-58h-36v-514zM121 514v-129h172v129h-172z" />
    <glyph glyph-name="hcircumflex" unicode="&#x125;" horiz-adv-x="408" 
d="M83 741l87 101h69l86 -101h-68l-53 59l-53 -59h-68zM118 0h-78v700h78v-315h172v315h78v-700h-78v315h-172v-315z" />
    <glyph glyph-name="i" unicode="i" horiz-adv-x="158" 
d="M118 0h-78v700h78v-700z" />
    <glyph glyph-name="dotlessi" unicode="&#x131;" horiz-adv-x="158" 
d="M118 0h-78v700h78v-700z" />
    <glyph glyph-name="iacute" unicode="&#xed;" horiz-adv-x="158" 
d="M178 842l-93 -103h-54l69 103h78zM118 700v-700h-78v700h78z" />
    <glyph glyph-name="ibreve" unicode="&#x12d;" horiz-adv-x="158" 
d="M155 763.5q-28 -27.5 -77 -27.5q-48 0 -75 27t-28 75h47q3 -53 56 -53q54 0 58 53h47q0 -47 -28 -74.5zM118 700v-700h-78v700h78z" />
    <glyph glyph-name="icircumflex" unicode="&#xee;" horiz-adv-x="158" 
d="M200 739h-68l-53 59l-53 -59h-68l86 100h69zM118 700v-700h-78v700h78z" />
    <glyph glyph-name="idieresis" unicode="&#xef;" horiz-adv-x="158" 
d="M51 739h-68v90h68v-90zM175 739h-68v90h68v-90zM118 0h-78v700h78v-700z" />
    <glyph glyph-name="igrave" unicode="&#xec;" horiz-adv-x="158" 
d="M56 842l70 -103h-58l-93 103h81zM118 700v-700h-78v700h78z" />
    <glyph glyph-name="ij" unicode="&#x133;" horiz-adv-x="412" 
d="M118 0h-78v700h78v-700zM335.5 40.5q-40.5 -39.5 -110.5 -41.5q-31 0 -48 1v71q13 -1 38 -1q42 2 62.5 24.5t20.5 73.5v532h78v-527q0 -93 -40.5 -132.5z" />
    <glyph glyph-name="imacron" unicode="&#x12b;" horiz-adv-x="158" 
d="M178 750h-199v56h199v-56zM118 0h-78v700h78v-700z" />
    <glyph glyph-name="iogonek" unicode="&#x12f;" horiz-adv-x="158" 
d="M76.5 -34q-9.5 -20 -8.5 -35q0 -15 10.5 -22.5t26.5 -7.5q13 0 22 2.5t18 6.5v-41q-27 -12 -62 -12t-55 14.5t-20 43.5q0 23 16 45.5t45 39.5h-29v700h78v-700h-14q-18 -14 -27.5 -34z" />
    <glyph glyph-name="itilde" unicode="&#x129;" horiz-adv-x="158" 
d="M130 744q-22 0 -50 16q-10 5 -20.5 9t-19.5 4q-15 0 -25.5 -6.5t-18.5 -22.5l-39 26q24 58 74 58q14 0 25.5 -4t26.5 -12q24 -13 39 -13q13 0 23 6.5t18 22.5l38 -26q-22 -58 -71 -58zM118 0h-78v700h78v-700z" />
    <glyph glyph-name="j" unicode="j" horiz-adv-x="255" 
d="M59 70q41 2 61.5 24.5t20.5 73.5v532h77v-527q0 -170 -149 -174h-25q-15 0 -24 1v71q13 -1 39 -1z" />
    <glyph glyph-name="uni0237" unicode="&#x237;" horiz-adv-x="255" 
d="M59 70q41 2 61.5 24.5t20.5 73.5v532h77v-527q0 -170 -149 -174h-25q-15 0 -24 1v71q13 -1 39 -1z" />
    <glyph glyph-name="jcircumflex" unicode="&#x135;" horiz-adv-x="255" 
d="M46 739l86 101h69l87 -101h-68l-53 60l-53 -60h-68zM69 -1h-25q-15 0 -24 1v71q13 -1 39 -1q41 2 61.5 24.5t20.5 73.5v532h77v-527q0 -170 -149 -174z" />
    <glyph glyph-name="k" unicode="k" horiz-adv-x="409" 
d="M118 235v-235h-78v700h78v-338l186 338h79l-177 -319l183 -381h-80l-150 304z" />
    <glyph glyph-name="kgreenlandic" unicode="&#x138;" horiz-adv-x="409" 
d="M118 235v-235h-78v700h78v-338l186 338h79l-177 -319l183 -381h-80l-150 304z" />
    <glyph glyph-name="l" unicode="l" horiz-adv-x="337" 
d="M40 700h78v-629h200v-71h-278v700z" />
    <glyph glyph-name="lacute" unicode="&#x13a;" horiz-adv-x="337" 
d="M110 739h-54l69 103h78zM40 700h78v-629h200v-71h-278v700z" />
    <glyph glyph-name="lcaron" unicode="&#x13e;" horiz-adv-x="337" 
d="M40 700h78v-629h200v-71h-278v700zM213 603v97h75v-89l-38 -96h-33l25 88h-29z" />
    <glyph glyph-name="ldot" unicode="&#x140;" horiz-adv-x="337" 
d="M40 700h78v-629h200v-71h-278v700zM272 303h-75v97h75v-97z" />
    <glyph glyph-name="lslash" unicode="&#x142;" horiz-adv-x="348" 
d="M128 71h201v-71h-278v208l-51 -50v72l51 50v420h77v-337l109 113v-72l-109 -113v-220z" />
    <glyph glyph-name="m" unicode="m" horiz-adv-x="523" 
d="M223 1l-116 557v-558h-68v700h109l115 -559l111 559h109v-700h-74v563l-111 -562h-75z" />
    <glyph glyph-name="n" unicode="n" horiz-adv-x="409" 
d="M39 0v700h99l162 -506v506h69v-700h-81l-179 566v-566h-70z" />
    <glyph glyph-name="nacute" unicode="&#x144;" horiz-adv-x="409" 
d="M213 740h-54l70 102h77zM39 0v700h99l162 -506v506h69v-700h-81l-179 567v-567h-70z" />
    <glyph glyph-name="napostrophe" unicode="&#x149;" horiz-adv-x="503" 
d="M11 603v97h75v-89l-38 -96h-33l25 88h-29zM134 0v700h99l162 -506v506h69v-700h-81l-179 566v-566h-70z" />
    <glyph glyph-name="ncaron" unicode="&#x148;" horiz-adv-x="409" 
d="M205 782l53 60h68l-86 -101h-69l-87 101h68zM39 0v700h99l162 -506v506h69v-700h-81l-179 566v-566h-70z" />
    <glyph glyph-name="ntilde" unicode="&#xf1;" horiz-adv-x="409" 
d="M254 746q-13 0 -24 4t-25 12q-24 13 -39 13t-25.5 -6.5t-18.5 -22.5l-39 26q23 58 74 58q14 0 25 -4t26 -12q24 -13 39 -13q28 0 41 29l39 -26q-23 -58 -73 -58zM39 0v700h99l162 -506v506h69v-700h-81l-179 566v-566h-70z" />
    <glyph glyph-name="o" unicode="o" horiz-adv-x="389" 
d="M74.5 660q40.5 47 119.5 47t120 -47t41 -129v-362q0 -82 -41 -129t-120 -47q-78 0 -119 47t-41 129v362q0 82 40.5 129zM132 90q21 -26 62 -26q83 0 83 101v370q0 48 -20.5 74.5t-62.5 26.5q-41 0 -62 -26.5t-21 -74.5v-370q0 -49 21 -75z" />
    <glyph glyph-name="oacute" unicode="&#xf3;" horiz-adv-x="389" 
d="M200 742h-54l70 103h77zM314 660q41 -47 41 -129v-362q0 -82 -41 -129t-120 -47q-78 0 -119 47t-41 129v362q0 82 40.5 129t119.5 47t120 -47zM132 609.5q-21 -26.5 -21 -74.5v-370q0 -49 21 -75t62 -26q83 0 83 101v370q0 48 -20.5 74.5t-62.5 26.5q-41 0 -62 -26.5z
" />
    <glyph glyph-name="obreve" unicode="&#x14f;" horiz-adv-x="389" 
d="M270 767q-28 -27 -77 -27q-48 0 -75 27t-28 74h47q3 -52 56 -52q55 0 59 52h47q-1 -47 -29 -74zM314 660q41 -47 41 -129v-362q0 -82 -41 -129t-120 -47q-78 0 -119 47t-41 129v362q0 82 40.5 129t119.5 47t120 -47zM132 609.5q-21 -26.5 -21 -74.5v-370q0 -49 21 -75
t62 -26q83 0 83 101v370q0 48 -20.5 74.5t-62.5 26.5q-41 0 -62 -26.5z" />
    <glyph glyph-name="ocircumflex" unicode="&#xf4;" horiz-adv-x="389" 
d="M73 741l86 101h69l87 -101h-68l-54 59l-52 -59h-68zM314 660q41 -47 41 -129v-362q0 -82 -41 -129t-120 -47q-78 0 -119 47t-41 129v362q0 82 40.5 129t119.5 47t120 -47zM132 609.5q-21 -26.5 -21 -74.5v-370q0 -49 21 -75t62 -26q83 0 83 101v370q0 48 -20.5 74.5
t-62.5 26.5q-41 0 -62 -26.5z" />
    <glyph glyph-name="odieresis" unicode="&#xf6;" horiz-adv-x="389" 
d="M166 741h-68v90h68v-90zM290 741h-68v90h68v-90zM314 660q41 -47 41 -129v-362q0 -82 -41 -129t-120 -47q-78 0 -119 47t-41 129v362q0 82 40.5 129t119.5 47t120 -47zM132 609.5q-21 -26.5 -21 -74.5v-370q0 -49 21 -75t62 -26q83 0 83 101v370q0 48 -20.5 74.5
t-62.5 26.5q-41 0 -62 -26.5z" />
    <glyph glyph-name="ograve" unicode="&#xf2;" horiz-adv-x="389" 
d="M243 742h-57l-93 103h81zM314 660q41 -47 41 -129v-362q0 -82 -41 -129t-120 -47q-78 0 -119 47t-41 129v362q0 82 40.5 129t119.5 47t120 -47zM132 609.5q-21 -26.5 -21 -74.5v-370q0 -49 21 -75t62 -26q83 0 83 101v370q0 48 -20.5 74.5t-62.5 26.5q-41 0 -62 -26.5z
" />
    <glyph glyph-name="ohungarumlaut" unicode="&#x151;" horiz-adv-x="389" 
d="M150 742h-49l57 103h72zM257 742h-49l57 103h73zM314 660q41 -47 41 -129v-362q0 -82 -41 -129t-120 -47q-78 0 -119 47t-41 129v362q0 82 40.5 129t119.5 47t120 -47zM132 609.5q-21 -26.5 -21 -74.5v-370q0 -49 21 -75t62 -26q83 0 83 101v370q0 48 -20.5 74.5
t-62.5 26.5q-41 0 -62 -26.5z" />
    <glyph glyph-name="omacron" unicode="&#x14d;" horiz-adv-x="389" 
d="M299 751h-208v55h208v-55zM314 660q41 -47 41 -129v-362q0 -82 -41 -129t-120 -47q-78 0 -119 47t-41 129v362q0 82 40.5 129t119.5 47t120 -47zM132 609.5q-21 -26.5 -21 -74.5v-370q0 -49 21 -75t62 -26q83 0 83 101v370q0 48 -20.5 74.5t-62.5 26.5q-41 0 -62 -26.5z
" />
    <glyph glyph-name="oslash" unicode="&#xf8;" horiz-adv-x="389" 
d="M355 531v-362q0 -82 -41 -129t-120 -47q-63 0 -102 31l-19 -50l-34 13l25 67q-30 45 -30 115v362q0 82 40.5 129t119.5 47q63 0 103 -31l18 49l35 -13l-25 -66q30 -45 30 -115zM194 636q-41 0 -62 -26.5t-21 -74.5v-355l155 414q-20 42 -72 42zM277 165v353l-155 -413
q21 -41 72 -41q83 0 83 101z" />
    <glyph glyph-name="oslashacute" unicode="&#x1ff;" horiz-adv-x="389" 
d="M297 845l-93 -103h-55l70 103h78zM355 531v-362q0 -82 -41 -129t-120 -47q-63 0 -102 31l-19 -50l-34 13l25 67q-30 45 -30 115v362q0 82 40.5 129t119.5 47q63 0 103 -31l18 49l35 -13l-25 -66q30 -45 30 -115zM194 636q-41 0 -62 -26.5t-21 -74.5v-355l155 414
q-20 42 -72 42zM277 165v353l-155 -413q21 -41 72 -41q83 0 83 101z" />
    <glyph glyph-name="otilde" unicode="&#xf5;" horiz-adv-x="389" 
d="M245 745q-22 0 -50 16q-10 5 -20.5 9t-19.5 4q-14 0 -24 -7t-18 -23l-39 27q23 56 74 58q14 0 26 -4.5t27 -12.5q24 -13 39 -13q13 1 22.5 8t17.5 22l38 -27q-21 -57 -73 -57zM314 660q41 -47 41 -129v-362q0 -82 -41 -129t-120 -47q-78 0 -119 47t-41 129v362
q0 82 40.5 129t119.5 47t120 -47zM132 609.5q-21 -26.5 -21 -74.5v-370q0 -49 21 -75t62 -26q83 0 83 101v370q0 48 -20.5 74.5t-62.5 26.5q-41 0 -62 -26.5z" />
    <glyph glyph-name="oe" unicode="&#x153;" horiz-adv-x="577" 
d="M508 320h-161v-249h198v-71h-357q-78 0 -116.5 46t-38.5 128v352q0 82 38.5 128t116.5 46h357v-71h-198v-239h161v-70zM130 603q-19 -26 -19 -73v-360q0 -47 19 -73t59 -26h81v558h-81q-40 0 -59 -26z" />
    <glyph glyph-name="p" unicode="p" horiz-adv-x="371" 
d="M311.5 655.5q38.5 -44.5 38.5 -126.5v-84q0 -169 -163 -169h-69v-276h-78v700h153q80 0 118.5 -44.5zM252 368q21 22 21 72v93q0 49 -19 72.5t-61 23.5h-75v-283h69q44 0 65 22z" />
    <glyph glyph-name="thorn" unicode="&#xfe;" horiz-adv-x="377" 
d="M311.5 554.5q38.5 -44.5 38.5 -127.5v-83q0 -170 -163 -170h-69v-174h-78v700h78v-101h75q80 0 118.5 -44.5zM252 267q21 22 21 72v93q0 48 -19 72t-61 24h-75v-283h69q44 0 65 22z" />
    <glyph glyph-name="q" unicode="q" horiz-adv-x="392" 
d="M314 660q41 -47 41 -129v-362q0 -67 -27 -109q6 -12 16 -17t27 -5h10v-69h-13q-64 0 -89 45q-36 -21 -85 -21q-78 0 -119 47t-41 129v362q0 82 40.5 129t119.5 47t120 -47zM132 609.5q-21 -26.5 -21 -74.5v-370q0 -49 21 -75t62 -26q83 0 83 101v370q0 48 -20.5 74.5
t-62.5 26.5q-41 0 -62 -26.5z" />
    <glyph glyph-name="r" unicode="r" horiz-adv-x="394" 
d="M314.5 660q37.5 -40 37.5 -120v-57q0 -58 -21 -94t-66 -50q46 -14 67 -50.5t21 -95.5v-109q0 -29 2.5 -48.5t11.5 -35.5h-79q-7 16 -10 33.5t-3 51.5v110q0 57 -25.5 80.5t-76.5 23.5h-55v-299h-78v700h156q81 0 118.5 -40zM250.5 391q24.5 21 24.5 75v67q0 48 -19 72
t-62 24h-76v-259h58q50 0 74.5 21z" />
    <glyph glyph-name="racute" unicode="&#x155;" horiz-adv-x="394" 
d="M194 742h-54l69 103h78zM314.5 660q37.5 -40 37.5 -120v-57q0 -58 -21 -94t-66 -50q46 -14 67 -50.5t21 -95.5v-109q0 -29 2.5 -48.5t11.5 -35.5h-79q-7 16 -10 33.5t-3 51.5v110q0 57 -25.5 80.5t-76.5 23.5h-55v-299h-78v700h156q81 0 118.5 -40zM250.5 391
q24.5 21 24.5 75v67q0 48 -19 72t-62 24h-76v-259h58q50 0 74.5 21z" />
    <glyph glyph-name="rcaron" unicode="&#x159;" horiz-adv-x="394" 
d="M186 782l53 60h68l-87 -100h-69l-86 100h68zM314.5 660q37.5 -40 37.5 -120v-57q0 -58 -21 -94t-66 -50q46 -14 67 -50.5t21 -95.5v-109q0 -29 2.5 -48.5t11.5 -35.5h-79q-7 16 -10 33.5t-3 51.5v110q0 57 -25.5 80.5t-76.5 23.5h-55v-299h-78v700h156q81 0 118.5 -40z
M250.5 391q24.5 21 24.5 75v67q0 48 -19 72t-62 24h-76v-259h58q50 0 74.5 21z" />
    <glyph glyph-name="s" unicode="s" horiz-adv-x="372" 
d="M303.5 660.5q39.5 -46.5 39.5 -128.5v-19h-74v23q0 100 -80 100t-80 -99q0 -50 27 -84.5t81 -76.5q43 -36 67.5 -61t42 -62t17.5 -85q0 -82 -40 -128.5t-118 -46.5t-117.5 46.5t-39.5 128.5v40h73v-44q0 -48 20.5 -74t61.5 -26t61.5 26t20.5 74q0 49 -26.5 83t-80.5 77
q-41 34 -66.5 59.5t-43 63t-17.5 85.5q0 83 39 129t116 46t116.5 -46.5z" />
    <glyph glyph-name="sacute" unicode="&#x15b;" horiz-adv-x="372" 
d="M196 742h-54l69 103h78zM303.5 660.5q39.5 -46.5 39.5 -128.5v-19h-74v23q0 100 -80 100t-80 -99q0 -50 27 -84.5t81 -76.5q43 -36 67.5 -61t42 -62t17.5 -85q0 -82 -40 -128.5t-118 -46.5t-117.5 46.5t-39.5 128.5v40h73v-44q0 -48 20.5 -74t61.5 -26t61.5 26t20.5 74
q0 49 -26.5 83t-80.5 77q-41 34 -66.5 59.5t-43 63t-17.5 85.5q0 83 39 129t116 46t116.5 -46.5z" />
    <glyph glyph-name="scaron" unicode="&#x161;" horiz-adv-x="372" 
d="M187 782l53 60h68l-87 -100h-69l-86 100h68zM303.5 660.5q39.5 -46.5 39.5 -128.5v-19h-74v23q0 100 -80 100t-80 -99q0 -50 27 -84.5t81 -76.5q43 -36 67.5 -61t42 -62t17.5 -85q0 -82 -40 -128.5t-118 -46.5t-117.5 46.5t-39.5 128.5v40h73v-44q0 -48 20.5 -74
t61.5 -26t61.5 26t20.5 74q0 49 -26.5 83t-80.5 77q-41 34 -66.5 59.5t-43 63t-17.5 85.5q0 83 39 129t116 46t116.5 -46.5z" />
    <glyph glyph-name="scedilla" unicode="&#x15f;" horiz-adv-x="372" 
d="M255.5 -50.5q19.5 -13.5 19.5 -37.5q0 -30 -25 -47t-70 -17q-43 0 -67.5 16.5t-24.5 45.5v8h51v-7q0 -12 11 -20t30 -9q20 0 31.5 8.5t11.5 23.5q0 14 -13 22t-36 8h-9v50q-69 6 -102.5 51.5t-33.5 122.5v40h73v-44q0 -48 20.5 -74t61.5 -26t61.5 26t20.5 74
q0 49 -26.5 83t-80.5 77q-41 34 -66.5 59.5t-43 63t-17.5 85.5q0 83 39 129t116 46t116.5 -46.5t39.5 -128.5v-19h-74v23q0 100 -80 100t-80 -99q0 -50 27 -84.5t81 -76.5q43 -36 67.5 -61t42 -62t17.5 -85q0 -78 -36 -124t-107 -50v-31q35 0 54.5 -13.5z" />
    <glyph glyph-name="scircumflex" unicode="&#x15d;" horiz-adv-x="372" 
d="M67 741l87 101h69l86 -101h-68l-53 59l-53 -59h-68zM303.5 660.5q39.5 -46.5 39.5 -128.5v-19h-74v23q0 100 -80 100t-80 -99q0 -50 27 -84.5t81 -76.5q43 -36 67.5 -61t42 -62t17.5 -85q0 -82 -40 -128.5t-118 -46.5t-117.5 46.5t-39.5 128.5v40h73v-44q0 -48 20.5 -74
t61.5 -26t61.5 26t20.5 74q0 49 -26.5 83t-80.5 77q-41 34 -66.5 59.5t-43 63t-17.5 85.5q0 83 39 129t116 46t116.5 -46.5z" />
    <glyph glyph-name="germandbls" unicode="&#xdf;" horiz-adv-x="729" 
d="M302 660.5q39 -46.5 39 -128.5v-19h-74v23q0 100 -80 100q-40 0 -60 -25.5t-20 -73.5q0 -50 27 -84.5t81 -76.5q43 -36 67.5 -61t42 -62t17.5 -85q0 -82 -39.5 -128.5t-118.5 -46.5q-78 0 -117.5 46.5t-39.5 128.5v40h73v-44q0 -48 20.5 -74t61.5 -26q82 0 82 100
q0 49 -26.5 83t-80.5 77q-41 34 -66.5 59.5t-43 63t-17.5 85.5q0 83 39 129t116 46q78 0 117 -46.5zM662 660.5q39 -46.5 39 -128.5v-19h-73v23q0 100 -80 100t-80 -99q0 -50 26.5 -84t80.5 -77q42 -34 67 -60t42.5 -63t17.5 -85q0 -82 -39.5 -128.5t-117.5 -46.5
q-79 0 -118.5 46.5t-39.5 128.5v40h74v-44q0 -48 20.5 -74t61.5 -26t61.5 26t20.5 74q0 49 -26.5 83t-80.5 77q-41 33 -66.5 59t-43.5 63.5t-18 85.5q0 83 39.5 129t116.5 46t116 -46.5z" />
    <glyph glyph-name="t" unicode="t" horiz-adv-x="360" 
d="M141 629h-129v71h335v-71h-129v-629h-77v629z" />
    <glyph glyph-name="tbar" unicode="&#x167;" horiz-adv-x="372" 
d="M296 418h-71v-418h-78v418h-71v58h71v153h-129v71h336v-71h-129v-153h71v-58z" />
    <glyph glyph-name="tcaron" unicode="&#x165;" horiz-adv-x="372" 
d="M185 780l54 60h68l-87 -101h-69l-86 101h68zM147 629h-129v71h336v-71h-129v-629h-78v629z" />
    <glyph glyph-name="u" unicode="u" 
d="M196 64q41 0 61 26t20 75v535h73v-531q0 -83 -39 -130t-118 -47q-78 0 -117 47.5t-39 129.5v531h77v-535q0 -101 82 -101z" />
    <glyph glyph-name="uacute" unicode="&#xfa;" 
d="M203 742h-54l70 103h77zM311 39q-39 -47 -118 -47q-78 0 -117 47.5t-39 129.5v531h77v-535q0 -101 82 -101q41 0 61 26t20 75v535h73v-531q0 -83 -39 -130z" />
    <glyph glyph-name="ubreve" unicode="&#x16d;" 
d="M270.5 763.5q-27.5 -27.5 -76.5 -27.5q-48 0 -75.5 27t-28.5 75h47q2 -29 16.5 -41t40.5 -12q54 0 58 53h47q-1 -47 -28.5 -74.5zM311 39q-39 -47 -118 -47q-78 0 -117 47.5t-39 129.5v531h77v-535q0 -101 82 -101q41 0 61 26t20 75v535h73v-531q0 -83 -39 -130z" />
    <glyph glyph-name="ucircumflex" unicode="&#xfb;" 
d="M74 741l86 101h69l87 -101h-68l-54 59l-52 -59h-68zM311 39q-39 -47 -118 -47q-78 0 -117 47.5t-39 129.5v531h77v-535q0 -101 82 -101q41 0 61 26t20 75v535h73v-531q0 -83 -39 -130z" />
    <glyph glyph-name="udieresis" unicode="&#xfc;" 
d="M167 740h-69v90h69v-90zM291 740h-68v90h68v-90zM311 39q-39 -47 -118 -47q-78 0 -117 47.5t-39 129.5v531h77v-535q0 -101 82 -101q41 0 61 26t20 75v535h73v-531q0 -83 -39 -130z" />
    <glyph glyph-name="ugrave" unicode="&#xf9;" 
d="M243 739h-58l-93 103h81zM311 39q-39 -47 -118 -47q-78 0 -117 47.5t-39 129.5v531h77v-535q0 -101 82 -101q41 0 61 26t20 75v535h73v-531q0 -83 -39 -130z" />
    <glyph glyph-name="uhungarumlaut" unicode="&#x171;" 
d="M149 741h-49l57 103h72zM256 741h-48l56 103h73zM311 39q-39 -47 -118 -47q-78 0 -117 47.5t-39 129.5v531h77v-535q0 -101 82 -101q41 0 61 26t20 75v535h73v-531q0 -83 -39 -130z" />
    <glyph glyph-name="umacron" unicode="&#x16b;" 
d="M298 750h-205v56h205v-56zM311 39q-39 -47 -118 -47q-78 0 -117 47.5t-39 129.5v531h77v-535q0 -101 82 -101q41 0 61 26t20 75v535h73v-531q0 -83 -39 -130z" />
    <glyph glyph-name="uni0123" unicode="&#x123;" horiz-adv-x="383" 
d="M309.5 660q39.5 -47 39.5 -129v-60h-74v64q0 101 -82 101q-41 0 -61.5 -26.5t-20.5 -74.5v-370q0 -48 20.5 -74.5t61.5 -26.5q82 0 82 101v140h-72v70h146v-206q0 -82 -39.5 -129t-118.5 -47q-78 0 -117.5 47t-39.5 129v362q0 82 39.5 129t117.5 47q79 0 118.5 -47z
M159 -121v88h65v-81l-35 -63h-28l22 56h-24z" />
    <glyph glyph-name="uni0137" unicode="&#x137;" horiz-adv-x="409" 
d="M118 235v-235h-78v700h78v-338l186 338h79l-177 -319l183 -381h-80l-150 304zM172 -121v88h66v-81l-35 -63h-29l23 56h-25z" />
    <glyph glyph-name="uni013C" unicode="&#x13c;" horiz-adv-x="337" 
d="M40 700h78v-629h200v-71h-278v700zM153 -121v88h65v-81l-35 -63h-28l22 56h-24z" />
    <glyph glyph-name="uni0146" unicode="&#x146;" horiz-adv-x="409" 
d="M39 0v700h99l162 -506v506h69v-700h-81l-179 566v-566h-70zM171 -121v88h65v-81l-35 -63h-28l23 56h-25z" />
    <glyph glyph-name="uni0157" unicode="&#x157;" horiz-adv-x="394" 
d="M314.5 660q37.5 -40 37.5 -120v-57q0 -58 -21 -94t-66 -50q46 -14 67 -50.5t21 -95.5v-109q0 -29 2.5 -48.5t11.5 -35.5h-79q-7 16 -10 33.5t-3 51.5v110q0 57 -25.5 80.5t-76.5 23.5h-55v-299h-78v700h156q81 0 118.5 -40zM250.5 391q24.5 21 24.5 75v67q0 48 -19 72
t-62 24h-76v-259h58q50 0 74.5 21zM164 -121v88h66v-81l-35 -63h-29l23 56h-25z" />
    <glyph glyph-name="uni0163" unicode="&#x163;" horiz-adv-x="372" 
d="M204 -38q30 0 48.5 -14.5t18.5 -41.5q0 -37 -24.5 -55.5t-60.5 -18.5t-62.5 17t-26.5 49v8h47v-8q0 -15 11.5 -22t26.5 -7q17 0 29 8.5t12 25.5q0 18 -12.5 25.5t-34.5 7.5h-9v64h-20v629h-129v71h336v-71h-129v-629h-21v-38z" />
    <glyph glyph-name="uni0219" unicode="&#x219;" horiz-adv-x="372" 
d="M303.5 660.5q39.5 -46.5 39.5 -128.5v-19h-74v23q0 100 -80 100t-80 -99q0 -50 27 -84.5t81 -76.5q43 -36 67.5 -61t42 -62t17.5 -85q0 -82 -40 -128.5t-118 -46.5t-117.5 46.5t-39.5 128.5v40h73v-44q0 -48 20.5 -74t61.5 -26t61.5 26t20.5 74q0 49 -26.5 83t-80.5 77
q-41 34 -66.5 59.5t-43 63t-17.5 85.5q0 83 39 129t116 46t116.5 -46.5zM151 -121v88h66v-81l-35 -63h-29l23 56h-25z" />
    <glyph glyph-name="uni021B" unicode="&#x21b;" horiz-adv-x="372" 
d="M147 629h-129v71h336v-71h-129v-629h-78v629zM153 -121v88h66v-81l-35 -63h-29l23 56h-25z" />
    <glyph glyph-name="uni1E03" unicode="&#x1e03;" horiz-adv-x="392" 
d="M212 740h-68v90h68v-90zM313 662q36 -38 36 -117v-33q0 -58 -19 -91.5t-63 -47.5q94 -26 94 -150v-59q0 -80 -39.5 -122t-120.5 -42h-161v700h157q80 0 116 -38zM249.5 423q22.5 20 22.5 73v41q0 47 -18 69.5t-59 22.5h-77v-226h60q49 0 71.5 20zM264 94q20 23 20 72v62
q0 57 -23 80.5t-75 23.5h-68v-261h83q43 0 63 23z" />
    <glyph glyph-name="uni1E0B" unicode="&#x1e0b;" horiz-adv-x="396" 
d="M219 740h-68v90h68v-90zM323.5 654.5q39.5 -45.5 39.5 -128.5v-353q0 -82 -39.5 -127.5t-119.5 -45.5h-164v700h164q80 0 119.5 -45.5zM286 170v360q0 99 -84 99h-84v-558h85q83 0 83 99z" />
    <glyph glyph-name="uni1E1F" unicode="&#x1e1f;" horiz-adv-x="340" 
d="M214 740h-68v90h68v-90zM279 303h-161v-303h-78v700h278v-71h-200v-255h161v-71z" />
    <glyph glyph-name="uni1E41" unicode="&#x1e41;" horiz-adv-x="523" 
d="M295 742h-68v90h68v-90zM223 1l-116 557v-558h-68v700h109l115 -559l111 559h109v-700h-74v563l-111 -562h-75z" />
    <glyph glyph-name="uni1E57" unicode="&#x1e57;" horiz-adv-x="371" 
d="M217 740h-68v90h68v-90zM311.5 655.5q38.5 -44.5 38.5 -126.5v-84q0 -169 -163 -169h-69v-276h-78v700h153q80 0 118.5 -44.5zM252 368q21 22 21 72v93q0 49 -19 72.5t-61 23.5h-75v-283h69q44 0 65 22z" />
    <glyph glyph-name="uni1E61" unicode="&#x1e61;" horiz-adv-x="372" 
d="M223 743h-68v90h68v-90zM303.5 660.5q39.5 -46.5 39.5 -128.5v-19h-74v23q0 100 -80 100t-80 -99q0 -50 27 -84.5t81 -76.5q43 -36 67.5 -61t42 -62t17.5 -85q0 -82 -40 -128.5t-118 -46.5t-117.5 46.5t-39.5 128.5v40h73v-44q0 -48 20.5 -74t61.5 -26t61.5 26t20.5 74
q0 49 -26.5 83t-80.5 77q-41 34 -66.5 59.5t-43 63t-17.5 85.5q0 83 39 129t116 46t116.5 -46.5z" />
    <glyph glyph-name="uni1E6B" unicode="&#x1e6b;" horiz-adv-x="372" 
d="M219 740h-68v90h68v-90zM146 629h-129v71h336v-71h-129v-629h-78v629z" />
    <glyph glyph-name="uogonek" unicode="&#x173;" 
d="M333.5 71q-16.5 -42 -58.5 -66q-19 -15 -29.5 -36.5t-9.5 -37.5q0 -15 10.5 -22.5t26.5 -7.5q20 0 40 9v-41q-27 -12 -62 -12t-55 14.5t-20 43.5q0 21 14.5 42.5t38.5 38.5q-15 -4 -36 -4q-78 0 -117 47.5t-39 129.5v531h77v-535q0 -101 82 -101q41 0 61 26t20 75v535h73
v-531q0 -56 -16.5 -98z" />
    <glyph glyph-name="uring" unicode="&#x16f;" 
d="M248.5 860q21.5 -21 21.5 -52t-21.5 -52t-52.5 -21t-52 21t-21 52t21 52t52 21t52.5 -21zM170.5 834q-10.5 -10 -10.5 -26t10.5 -26t25.5 -10t26 10.5t11 25.5t-11 25.5t-26 10.5t-25.5 -10zM311 39q-39 -47 -118 -47q-78 0 -117 47.5t-39 129.5v531h77v-535
q0 -101 82 -101q41 0 61 26t20 75v535h73v-531q0 -83 -39 -130z" />
    <glyph glyph-name="utilde" unicode="&#x169;" 
d="M243 745q-13 0 -24 4t-26 12q-24 13 -39 13q-14 0 -24 -7t-18 -23l-39 27q22 56 73 58q14 0 26 -4.5t27 -12.5q24 -13 39 -13q26 2 40 30l39 -27q-22 -57 -74 -57zM311 39q-39 -47 -118 -47q-78 0 -117 47.5t-39 129.5v531h77v-535q0 -101 82 -101q41 0 61 26t20 75v535
h73v-531q0 -83 -39 -130z" />
    <glyph glyph-name="v" unicode="v" horiz-adv-x="418" 
d="M213 91l113 609h72l-131 -700h-115l-132 700h79z" />
    <glyph glyph-name="w" unicode="w" horiz-adv-x="583" 
d="M119 0l-96 700h76l82 -596l78 595h77l77 -596l79 597h68l-95 -700h-103l-67 475l-69 -475h-107z" />
    <glyph glyph-name="wacute" unicode="&#x1e83;" horiz-adv-x="583" 
d="M298 739h-55l70 103h78zM119 0l-96 700h76l82 -596l78 595h77l77 -596l79 597h68l-95 -700h-103l-67 475l-69 -475h-107z" />
    <glyph glyph-name="wcircumflex" unicode="&#x175;" horiz-adv-x="583" 
d="M172 740l86 101h69l87 -101h-68l-53 59l-53 -59h-68zM119 0l-96 700h76l82 -596l78 595h77l77 -596l79 597h68l-95 -700h-103l-67 475l-69 -475h-107z" />
    <glyph glyph-name="wdieresis" unicode="&#x1e85;" horiz-adv-x="583" 
d="M265 741h-68v90h68v-90zM389 741h-68v90h68v-90zM119 0l-96 700h76l82 -596l78 595h77l77 -596l79 597h68l-95 -700h-103l-67 475l-69 -475h-107z" />
    <glyph glyph-name="wgrave" unicode="&#x1e81;" horiz-adv-x="583" 
d="M346 742h-57l-93 103h81zM119 0l-96 700h76l82 -596l78 595h77l77 -596l79 597h68l-95 -700h-103l-67 475l-69 -475h-107z" />
    <glyph glyph-name="x" unicode="x" horiz-adv-x="435" 
d="M97 0h-74l141 361l-132 339h81l108 -280l109 280h73l-131 -339l140 -361h-82l-116 302z" />
    <glyph glyph-name="y" unicode="y" horiz-adv-x="406" 
d="M16 700h81l109 -344l110 344h74l-149 -449v-251h-77v251z" />
    <glyph glyph-name="yacute" unicode="&#xfd;" horiz-adv-x="406" 
d="M214 739h-54l70 103h77zM16 700h81l109 -344l110 344h74l-149 -449v-251h-77v251z" />
    <glyph glyph-name="ycircumflex" unicode="&#x177;" horiz-adv-x="406" 
d="M85 740l86 100h69l87 -100h-68l-53 59l-53 -59h-68zM16 700h81l109 -344l110 344h74l-149 -449v-251h-77v251z" />
    <glyph glyph-name="ydieresis" unicode="&#xff;" horiz-adv-x="406" 
d="M177 739h-68v90h68v-90zM301 739h-68v90h68v-90zM16 700h81l109 -344l110 344h74l-149 -449v-251h-77v251z" />
    <glyph glyph-name="ygrave" unicode="&#x1ef3;" horiz-adv-x="406" 
d="M255 742h-57l-93 103h81zM16 700h81l109 -344l110 344h74l-149 -449v-251h-77v251z" />
    <glyph glyph-name="z" unicode="z" horiz-adv-x="379" 
d="M29 0v70l240 559h-229v71h309v-70l-241 -559h239v-71h-318z" />
    <glyph glyph-name="zacute" unicode="&#x17a;" horiz-adv-x="379" 
d="M204 742h-54l69 103h78zM29 0v70l240 559h-229v71h309v-70l-241 -559h239v-71h-318z" />
    <glyph glyph-name="zcaron" unicode="&#x17e;" horiz-adv-x="379" 
d="M193 782l54 60h68l-87 -101h-69l-86 101h68zM29 0v70l240 559h-229v71h309v-70l-241 -559h239v-71h-318z" />
    <glyph glyph-name="zdotaccent" unicode="&#x17c;" horiz-adv-x="379" 
d="M231 742h-68v90h68v-90zM29 0v70l240 559h-229v71h309v-70l-241 -559h239v-71h-318z" />
    <glyph glyph-name="ordfeminine" unicode="&#xaa;" horiz-adv-x="275" 
d="M238 595v-261h-43l-3 55q-9 -29 -29 -44.5t-49 -15.5q-40 0 -60.5 25.5t-20.5 73.5v4q0 65 42.5 91.5t112.5 28.5v50q0 57 -43 57q-50 0 -50 -61v-18h-47v15q0 52 24.5 81t74.5 29q91 0 91 -110zM111 493q-27 -19 -27 -54v-7q0 -56 49 -56q25 0 38.5 15.5t16.5 43.5v79
q-50 -2 -77 -21zM238 227h-204v50h204v-50z" />
    <glyph glyph-name="ordmasculine" unicode="&#xba;" horiz-adv-x="277" 
d="M214.5 675q26.5 -30 26.5 -82v-153q0 -52 -26.5 -82t-76.5 -30t-76 30t-26 82v153q0 52 26 82t76 30t76.5 -30zM86 596v-159q0 -63 52 -63t52 63v159q0 63 -52 63t-52 -63zM241 228h-204v50h204v-50z" />
    <glyph glyph-name="uni0410" unicode="&#x410;" horiz-adv-x="422" 
d="M92 0h-72l134 700h113l134 -700h-78l-27 141h-177zM285 208l-79 404l-77 -404h156z" />
    <glyph glyph-name="uni0411" unicode="&#x411;" horiz-adv-x="401" 
d="M323.5 370.5q41.5 -40.5 41.5 -123.5v-77q0 -170 -161 -170h-163v700h295v-71h-218v-218h82q82 0 123.5 -40.5zM267 93.5q20 22.5 20 71.5v87q0 49 -21 69t-66 20h-82v-270h86q43 0 63 22.5z" />
    <glyph glyph-name="uni0412" unicode="&#x412;" horiz-adv-x="392" 
d="M313 662q36 -38 36 -117v-33q0 -58 -19 -91.5t-63 -47.5q94 -26 94 -150v-59q0 -80 -39.5 -122t-120.5 -42h-161v700h157q80 0 116 -38zM249.5 423q22.5 20 22.5 73v41q0 47 -18 69.5t-59 22.5h-77v-226h60q49 0 71.5 20zM264 94q20 23 20 72v62q0 57 -23 80.5t-75 23.5
h-68v-261h83q43 0 63 23z" />
    <glyph glyph-name="uni0413" unicode="&#x413;" horiz-adv-x="356" 
d="M118 0h-77v700h279v-71h-202v-629z" />
    <glyph glyph-name="uni0414" unicode="&#x414;" horiz-adv-x="489" 
d="M385 0h-286v-96h-75v165h45q17 19 23 42.5t8 59.5l27 529h281v-631h53v-165h-76v96zM167 109.5q-7 -23.5 -23 -40.5h185v560h-130l-23 -457q-2 -39 -9 -62.5z" />
    <glyph glyph-name="uni0415" unicode="&#x415;" horiz-adv-x="360" 
d="M289 320h-171v-249h210v-71h-288v700h288v-71h-210v-239h171v-70z" />
    <glyph glyph-name="uni0401" unicode="&#x401;" horiz-adv-x="360" 
d="M155 741h-68v90h68v-90zM280 741h-69v90h69v-90zM289 320h-171v-249h210v-71h-288v700h288v-71h-210v-239h171v-70z" />
    <glyph glyph-name="uni0416" unicode="&#x416;" horiz-adv-x="613" 
d="M345 264v-264h-77v264l-36 67l-134 -331h-80l160 403l-156 297h78l168 -322v322h77v-322l169 322h78l-155 -295l159 -405h-80l-134 330z" />
    <glyph glyph-name="uni0417" unicode="&#x417;" 
d="M311.5 660q39.5 -47 39.5 -129v-18q0 -55 -22 -92t-64 -53q43 -15 64.5 -52.5t21.5 -91.5v-55q0 -82 -39.5 -129t-118.5 -47q-78 0 -117.5 47t-39.5 129v68h73v-72q0 -48 20.5 -74.5t61.5 -26.5q42 0 62 27t20 80v55q0 51 -23 77.5t-67 26.5h-33v70h37q39 0 62.5 25.5
t23.5 70.5v32q0 55 -20 81.5t-62 26.5q-41 0 -61.5 -26.5t-20.5 -74.5v-47h-72v44q0 83 39 129t117 46q79 0 118.5 -47z" />
    <glyph glyph-name="uni0418" unicode="&#x418;" horiz-adv-x="409" 
d="M121 0h-81v700h69v-522l72 221l102 301h87v-700h-70v557l-75 -232z" />
    <glyph glyph-name="uni0419" unicode="&#x419;" horiz-adv-x="410" 
d="M288 772q-29 -26 -79 -26t-78 26t-30 72h49q4 -51 59 -51q56 0 60 51h48q0 -46 -29 -72zM121 0h-81v700h69v-522l66 205l108 317h87v-700h-70v557l-73 -226z" />
    <glyph glyph-name="uni041A" unicode="&#x41a;" horiz-adv-x="409" 
d="M118 235v-235h-78v700h78v-338l186 338h79l-177 -319l183 -381h-80l-150 304z" />
    <glyph glyph-name="uni041B" unicode="&#x41b;" horiz-adv-x="444" 
d="M173 174q-3 -89 -34 -131.5t-107 -43.5h-13v71q46 0 61 22.5t17 77.5l19 530h285v-700h-78v629h-134z" />
    <glyph glyph-name="uni041C" unicode="&#x41c;" horiz-adv-x="523" 
d="M223 1l-116 557v-558h-68v700h109l115 -559l111 559h109v-700h-74v563l-111 -562h-75z" />
    <glyph glyph-name="uni041D" unicode="&#x41d;" horiz-adv-x="408" 
d="M118 0h-78v700h78v-315h172v315h78v-700h-78v315h-172v-315z" />
    <glyph glyph-name="uni041E" unicode="&#x41e;" horiz-adv-x="389" 
d="M74.5 660q40.5 47 119.5 47t120 -47t41 -129v-362q0 -82 -41 -129t-120 -47q-78 0 -119 47t-41 129v362q0 82 40.5 129zM132 90q21 -26 62 -26q83 0 83 101v370q0 48 -20.5 74.5t-62.5 26.5q-41 0 -62 -26.5t-21 -74.5v-370q0 -49 21 -75z" />
    <glyph glyph-name="uni041F" unicode="&#x41f;" horiz-adv-x="408" 
d="M118 0h-78v700h328v-700h-78v629h-172v-629z" />
    <glyph glyph-name="uni0420" unicode="&#x420;" horiz-adv-x="371" 
d="M311.5 655.5q38.5 -44.5 38.5 -126.5v-84q0 -169 -163 -169h-69v-276h-78v700h153q80 0 118.5 -44.5zM252 368q21 22 21 72v93q0 49 -19 72.5t-61 23.5h-75v-283h69q44 0 65 22z" />
    <glyph glyph-name="uni0421" unicode="&#x421;" horiz-adv-x="380" 
d="M309.5 660q39.5 -47 39.5 -129v-63h-74v67q0 101 -82 101q-41 0 -61.5 -26.5t-20.5 -74.5v-370q0 -48 20.5 -74.5t61.5 -26.5q82 0 82 101v91h74v-87q0 -82 -39.5 -129t-118.5 -47q-78 0 -117.5 47t-39.5 129v362q0 82 39.5 129t117.5 47q79 0 118.5 -47z" />
    <glyph glyph-name="uni0422" unicode="&#x422;" horiz-adv-x="372" 
d="M147 629h-129v71h336v-71h-129v-629h-78v629z" />
    <glyph glyph-name="uni0423" unicode="&#x423;" horiz-adv-x="417" 
d="M217.5 63q-19.5 -34 -56 -50.5t-98.5 -13.5v70q45 -2 67.5 13.5t32.5 55.5l16 46l-161 516h78l71 -243l48 -176l41 176l63 243h81l-150 -546q-13 -57 -32.5 -91z" />
    <glyph glyph-name="uni0424" unicode="&#x424;" horiz-adv-x="569" 
d="M533 443v-191q0 -175 -162 -175h-49v-77h-77v77h-49q-162 0 -162 175v191q0 175 162 175h49v82h77v-82h49q162 0 162 -175zM131.5 524q-20.5 -25 -20.5 -76v-201q0 -51 20.5 -76.5t64.5 -25.5h49v404h-49q-44 0 -64.5 -25zM457 247v201q0 51 -21 76t-65 25h-49v-404h49
q86 0 86 102z" />
    <glyph glyph-name="uni0425" unicode="&#x425;" horiz-adv-x="435" 
d="M97 0h-74l141 361l-132 339h81l108 -280l109 280h73l-131 -339l140 -361h-82l-116 302z" />
    <glyph glyph-name="uni0427" unicode="&#x427;" horiz-adv-x="401" 
d="M235.5 269.5q-29.5 -14.5 -61.5 -14.5q-68 0 -103.5 46t-35.5 120v279h78v-273q0 -45 23 -73t63 -28q35 0 56.5 21t27.5 61v292h77v-700h-77v310q-18 -26 -47.5 -40.5z" />
    <glyph glyph-name="uni0426" unicode="&#x426;" horiz-adv-x="455" 
d="M352 0h-305v700h77v-629h172v629h79v-631h53v-163h-76v94z" />
    <glyph glyph-name="uni0428" unicode="&#x428;" horiz-adv-x="581" 
d="M118 71h134v629h78v-629h134v629h77v-700h-501v700h78v-629z" />
    <glyph glyph-name="uni0429" unicode="&#x429;" horiz-adv-x="622" 
d="M520 0h-480v700h78v-629h134v629h77v-629h135v629h77v-631h54v-163h-75v94z" />
    <glyph glyph-name="uni042C" unicode="&#x42c;" horiz-adv-x="381" 
d="M350 255v-84q0 -82 -38.5 -126.5t-118.5 -44.5h-153v700h78v-276h69q163 0 163 -169zM254 94.5q19 23.5 19 72.5v93q0 50 -21 72t-65 22h-69v-283h75q42 0 61 23.5z" />
    <glyph glyph-name="uni042A" unicode="&#x42a;" horiz-adv-x="438" 
d="M408 255v-84q0 -82 -38.5 -126.5t-118.5 -44.5h-153v630h-88v70h165v-276h70q163 0 163 -169zM311.5 94.5q18.5 23.5 18.5 72.5v93q0 50 -20.5 72t-64.5 22h-70v-283h76q42 0 60.5 23.5z" />
    <glyph glyph-name="uni042B" unicode="&#x42b;" horiz-adv-x="532" 
d="M350 255v-84q0 -82 -38.5 -126.5t-118.5 -44.5h-153v700h78v-276h69q163 0 163 -169zM492 0h-77v700h77v-700zM254 94.5q19 23.5 19 72.5v93q0 50 -21 72t-65 22h-69v-283h75q42 0 61 23.5z" />
    <glyph glyph-name="uni042D" unicode="&#x42d;" horiz-adv-x="380" 
d="M305.5 660q39.5 -47 39.5 -129v-362q0 -82 -39.5 -129t-117.5 -47t-117.5 47t-39.5 129v76h73v-80q0 -48 20.5 -74.5t61.5 -26.5t61.5 26.5t20.5 74.5v162h-122v70h122v138q0 48 -20.5 74.5t-61.5 26.5t-61.5 -26.5t-20.5 -74.5v-56h-72v52q0 82 39 129t117 47t117.5 -47
z" />
    <glyph glyph-name="uni042E" unicode="&#x42e;" horiz-adv-x="575" 
d="M499.5 660q40.5 -47 40.5 -129v-362q0 -82 -41 -129t-119 -47q-79 0 -120 47t-41 129v146h-101v-315h-78v700h78v-315h101v146q0 82 41 129t120 47t119.5 -47zM297 535v-370q0 -48 20.5 -74.5t62.5 -26.5q41 0 62 26.5t21 74.5v370q0 49 -21 75t-62 26q-83 0 -83 -101z
" />
    <glyph glyph-name="uni042F" unicode="&#x42f;" horiz-adv-x="394" 
d="M144.5 275.5q-25.5 -23.5 -25.5 -80.5v-110q0 -34 -3 -51.5t-10 -33.5h-79q14 28 14 84v109q0 59 20.5 95.5t66.5 50.5q-86 28 -86 144v57q0 80 37.5 120t118.5 40h156v-700h-78v299h-55q-51 0 -76.5 -23.5zM138 605q-19 -24 -19 -72v-67q0 -54 24.5 -75t73.5 -21h59v259
h-76q-43 0 -62 -24z" />
    <glyph glyph-name="uni0430" unicode="&#x430;" horiz-adv-x="422" 
d="M92 0h-72l134 700h113l134 -700h-78l-27 141h-177zM285 208l-79 404l-77 -404h156z" />
    <glyph glyph-name="uni0431" unicode="&#x431;" horiz-adv-x="401" 
d="M323.5 370.5q41.5 -40.5 41.5 -123.5v-77q0 -170 -161 -170h-163v700h295v-71h-218v-218h82q82 0 123.5 -40.5zM267 93.5q20 22.5 20 71.5v87q0 49 -21 69t-66 20h-82v-270h86q43 0 63 22.5z" />
    <glyph glyph-name="uni0432" unicode="&#x432;" horiz-adv-x="392" 
d="M313 662q36 -38 36 -117v-33q0 -58 -19 -91.5t-63 -47.5q94 -26 94 -150v-59q0 -80 -39.5 -122t-120.5 -42h-161v700h157q80 0 116 -38zM249.5 423q22.5 20 22.5 73v41q0 47 -18 69.5t-59 22.5h-77v-226h60q49 0 71.5 20zM264 94q20 23 20 72v62q0 57 -23 80.5t-75 23.5
h-68v-261h83q43 0 63 23z" />
    <glyph glyph-name="uni0433" unicode="&#x433;" horiz-adv-x="356" 
d="M118 0h-77v700h279v-71h-202v-629z" />
    <glyph glyph-name="uni0434" unicode="&#x434;" horiz-adv-x="489" 
d="M385 0h-286v-96h-75v165h45q17 19 23 42.5t8 59.5l27 529h281v-631h53v-165h-76v96zM167 109.5q-7 -23.5 -23 -40.5h185v560h-130l-23 -457q-2 -39 -9 -62.5z" />
    <glyph glyph-name="uni0435" unicode="&#x435;" horiz-adv-x="360" 
d="M289 320h-171v-249h210v-71h-288v700h288v-71h-210v-239h171v-70z" />
    <glyph glyph-name="uni0451" unicode="&#x451;" horiz-adv-x="360" 
d="M155 741h-68v90h68v-90zM280 741h-69v90h69v-90zM289 320h-171v-249h210v-71h-288v700h288v-71h-210v-239h171v-70z" />
    <glyph glyph-name="uni0436" unicode="&#x436;" horiz-adv-x="613" 
d="M345 264v-264h-77v264l-36 67l-134 -331h-80l160 403l-156 297h78l168 -322v322h77v-322l169 322h78l-155 -295l159 -405h-80l-134 330z" />
    <glyph glyph-name="uni0437" unicode="&#x437;" 
d="M311.5 660q39.5 -47 39.5 -129v-18q0 -55 -22 -92t-64 -53q43 -15 64.5 -52.5t21.5 -91.5v-55q0 -82 -39.5 -129t-118.5 -47q-78 0 -117.5 47t-39.5 129v68h73v-72q0 -48 20.5 -74.5t61.5 -26.5q42 0 62 27t20 80v55q0 51 -23 77.5t-67 26.5h-33v70h37q39 0 62.5 25.5
t23.5 70.5v32q0 55 -20 81.5t-62 26.5q-41 0 -61.5 -26.5t-20.5 -74.5v-47h-72v44q0 83 39 129t117 46q79 0 118.5 -47z" />
    <glyph glyph-name="uni0438" unicode="&#x438;" horiz-adv-x="409" 
d="M121 0h-81v700h69v-522l62 193l112 329h87v-700h-70v557l-76 -234z" />
    <glyph glyph-name="uni0439" unicode="&#x439;" horiz-adv-x="410" 
d="M288 771q-29 -26 -79 -26t-78 26t-30 72h49q2 -28 17 -39.5t42 -11.5q56 0 60 51h48q0 -46 -29 -72zM121 0h-81v700h69v-522l65 202l109 320h87v-700h-70v557l-70 -220z" />
    <glyph glyph-name="uni043A" unicode="&#x43a;" horiz-adv-x="409" 
d="M118 235v-235h-78v700h78v-338l186 338h79l-177 -319l183 -381h-80l-150 304z" />
    <glyph glyph-name="uni043B" unicode="&#x43b;" horiz-adv-x="444" 
d="M173 174q-3 -89 -34 -131.5t-107 -43.5h-13v71q46 0 61 22.5t17 77.5l19 530h285v-700h-78v629h-134z" />
    <glyph glyph-name="uni043C" unicode="&#x43c;" horiz-adv-x="523" 
d="M223 1l-116 557v-558h-68v700h109l115 -559l111 559h109v-700h-74v563l-111 -562h-75z" />
    <glyph glyph-name="uni043D" unicode="&#x43d;" horiz-adv-x="408" 
d="M118 0h-78v700h78v-315h172v315h78v-700h-78v315h-172v-315z" />
    <glyph glyph-name="uni043E" unicode="&#x43e;" horiz-adv-x="389" 
d="M74.5 660q40.5 47 119.5 47t120 -47t41 -129v-362q0 -82 -41 -129t-120 -47q-78 0 -119 47t-41 129v362q0 82 40.5 129zM132 90q21 -26 62 -26q83 0 83 101v370q0 48 -20.5 74.5t-62.5 26.5q-41 0 -62 -26.5t-21 -74.5v-370q0 -49 21 -75z" />
    <glyph glyph-name="uni043F" unicode="&#x43f;" horiz-adv-x="408" 
d="M118 0h-78v700h328v-700h-78v629h-172v-629z" />
    <glyph glyph-name="uni0440" unicode="&#x440;" horiz-adv-x="371" 
d="M311.5 655.5q38.5 -44.5 38.5 -126.5v-84q0 -169 -163 -169h-69v-276h-78v700h153q80 0 118.5 -44.5zM252 368q21 22 21 72v93q0 49 -19 72.5t-61 23.5h-75v-283h69q44 0 65 22z" />
    <glyph glyph-name="uni0441" unicode="&#x441;" horiz-adv-x="380" 
d="M309.5 660q39.5 -47 39.5 -129v-63h-74v67q0 101 -82 101q-41 0 -61.5 -26.5t-20.5 -74.5v-370q0 -48 20.5 -74.5t61.5 -26.5q82 0 82 101v91h74v-87q0 -82 -39.5 -129t-118.5 -47q-78 0 -117.5 47t-39.5 129v362q0 82 39.5 129t117.5 47q79 0 118.5 -47z" />
    <glyph glyph-name="uni0442" unicode="&#x442;" horiz-adv-x="372" 
d="M147 629h-129v71h336v-71h-129v-629h-78v629z" />
    <glyph glyph-name="uni0443" unicode="&#x443;" horiz-adv-x="417" 
d="M217.5 63q-19.5 -34 -56 -50.5t-98.5 -13.5v70q45 -2 67.5 13.5t32.5 55.5l16 46l-161 516h78l71 -243l48 -176l41 176l63 243h81l-150 -546q-13 -57 -32.5 -91z" />
    <glyph glyph-name="uni0444" unicode="&#x444;" horiz-adv-x="569" 
d="M533 443v-191q0 -175 -162 -175h-49v-77h-77v77h-49q-162 0 -162 175v191q0 175 162 175h49v82h77v-82h49q162 0 162 -175zM131.5 524q-20.5 -25 -20.5 -76v-201q0 -51 20.5 -76.5t64.5 -25.5h49v404h-49q-44 0 -64.5 -25zM457 247v201q0 51 -21 76t-65 25h-49v-404h49
q86 0 86 102z" />
    <glyph glyph-name="uni0445" unicode="&#x445;" horiz-adv-x="435" 
d="M97 0h-74l141 361l-132 339h81l108 -280l109 280h73l-131 -339l140 -361h-82l-116 302z" />
    <glyph glyph-name="uni0447" unicode="&#x447;" horiz-adv-x="401" 
d="M235.5 269.5q-29.5 -14.5 -61.5 -14.5q-68 0 -103.5 46t-35.5 120v279h78v-273q0 -45 23 -73t63 -28q35 0 56.5 21t27.5 61v292h77v-700h-77v310q-18 -26 -47.5 -40.5z" />
    <glyph glyph-name="uni0446" unicode="&#x446;" horiz-adv-x="455" 
d="M352 0h-305v700h77v-629h172v629h79v-631h53v-163h-76v94z" />
    <glyph glyph-name="uni0448" unicode="&#x448;" horiz-adv-x="581" 
d="M118 71h134v629h78v-629h134v629h77v-700h-501v700h78v-629z" />
    <glyph glyph-name="uni0449" unicode="&#x449;" horiz-adv-x="622" 
d="M520 0h-480v700h78v-629h134v629h77v-629h135v629h77v-631h54v-163h-75v94z" />
    <glyph glyph-name="uni044C" unicode="&#x44c;" horiz-adv-x="381" 
d="M350 255v-84q0 -82 -38.5 -126.5t-118.5 -44.5h-153v700h78v-276h69q163 0 163 -169zM254 94.5q19 23.5 19 72.5v93q0 50 -21 72t-65 22h-69v-283h75q42 0 61 23.5z" />
    <glyph glyph-name="uni044A" unicode="&#x44a;" horiz-adv-x="438" 
d="M408 255v-84q0 -82 -38.5 -126.5t-118.5 -44.5h-153v630h-88v70h165v-276h70q163 0 163 -169zM311.5 94.5q18.5 23.5 18.5 72.5v93q0 50 -20.5 72t-64.5 22h-70v-283h76q42 0 60.5 23.5z" />
    <glyph glyph-name="uni044B" unicode="&#x44b;" horiz-adv-x="532" 
d="M350 255v-84q0 -82 -38.5 -126.5t-118.5 -44.5h-153v700h78v-276h69q163 0 163 -169zM492 0h-77v700h77v-700zM254 94.5q19 23.5 19 72.5v93q0 50 -21 72t-65 22h-69v-283h75q42 0 61 23.5z" />
    <glyph glyph-name="uni044D" unicode="&#x44d;" horiz-adv-x="380" 
d="M305.5 660q39.5 -47 39.5 -129v-362q0 -82 -39.5 -129t-117.5 -47t-117.5 47t-39.5 129v76h73v-80q0 -48 20.5 -74.5t61.5 -26.5t61.5 26.5t20.5 74.5v162h-122v70h122v138q0 48 -20.5 74.5t-61.5 26.5t-61.5 -26.5t-20.5 -74.5v-56h-72v52q0 82 39 129t117 47t117.5 -47
z" />
    <glyph glyph-name="uni044E" unicode="&#x44e;" horiz-adv-x="575" 
d="M499.5 660q40.5 -47 40.5 -129v-362q0 -82 -41 -129t-119 -47q-79 0 -120 47t-41 129v146h-101v-315h-78v700h78v-315h101v146q0 82 41 129t120 47t119.5 -47zM297 535v-370q0 -48 20.5 -74.5t62.5 -26.5q41 0 62 26.5t21 74.5v370q0 49 -21 75t-62 26q-83 0 -83 -101z
" />
    <glyph glyph-name="uni044F" unicode="&#x44f;" horiz-adv-x="394" 
d="M144.5 275.5q-25.5 -23.5 -25.5 -80.5v-110q0 -34 -3 -51.5t-10 -33.5h-79q14 28 14 84v109q0 59 20.5 95.5t66.5 50.5q-86 28 -86 144v57q0 80 37.5 120t118.5 40h156v-700h-78v299h-55q-51 0 -76.5 -23.5zM138 605q-19 -24 -19 -72v-67q0 -54 24.5 -75t73.5 -21h59v259
h-76q-43 0 -62 -24z" />
    <glyph glyph-name="zero" unicode="0" horiz-adv-x="389" 
d="M74.5 660q40.5 47 119.5 47t120 -47t41 -129v-361q0 -82 -41 -129.5t-120 -47.5q-78 0 -119 47.5t-41 129.5v361q0 82 40.5 129zM132 90.5q21 -26.5 62 -26.5q42 0 62.5 26.5t20.5 74.5v370q0 49 -20.5 75.5t-62.5 26.5q-41 0 -62 -26.5t-21 -75.5v-370q0 -48 21 -74.5z
" />
    <glyph glyph-name="one" unicode="1" horiz-adv-x="338" 
d="M86 543v64q52 2 78 26t42 67h54v-700h-77v573q-44 -27 -97 -30z" />
    <glyph glyph-name="two" unicode="2" 
d="M315.5 660q39.5 -47 39.5 -130q0 -53 -18 -97t-44 -78t-69 -81q-37 -42 -58 -68t-35 -57.5t-14 -66.5v-11h230v-71h-307v60q0 55 17 98.5t42 76t66 76.5q37 40 59.5 69t37.5 66t15 81q0 55 -19.5 82.5t-62.5 27.5q-41 0 -61.5 -27.5t-20.5 -75.5v-62h-73v57
q0 83 39 130.5t118 47.5t118.5 -47z" />
    <glyph glyph-name="three" unicode="3" 
d="M311.5 660.5q39.5 -46.5 39.5 -129.5v-18q0 -54 -21.5 -91t-63.5 -53q43 -16 64 -53.5t21 -91.5v-54q0 -83 -39.5 -130t-118.5 -47q-78 0 -117.5 47t-39.5 130v48h73v-53q0 -48 20.5 -74.5t61.5 -26.5q42 0 62 27t20 81v54q0 52 -22 77t-66 27h-42v70h46q40 2 62 26.5
t22 69.5v32q0 55 -20 82t-62 27q-41 0 -61.5 -26.5t-20.5 -75.5v-36h-73v32q0 83 39.5 129.5t117.5 46.5q79 0 118.5 -46.5z" />
    <glyph glyph-name="four" unicode="4" horiz-adv-x="400" 
d="M324 0h-76v141h-226v71l217 488h85v-488h56v-71h-56v-141zM248 212v342l-154 -342h154z" />
    <glyph glyph-name="five" unicode="5" 
d="M222 473q65 0 97.5 -44t32.5 -122v-137q0 -83 -40 -130t-118 -47t-117.5 47t-39.5 130v47h73v-52q0 -48 20.5 -74.5t61.5 -26.5t61.5 26.5t20.5 74.5v136q0 48 -20.5 74.5t-61.5 26.5q-33 0 -53.5 -18.5t-25.5 -56.5v-16h-73l19 389h276v-70h-206l-11 -215q34 58 104 58z
" />
    <glyph glyph-name="six" unicode="6" horiz-adv-x="389" 
d="M314.5 661q39.5 -46 39.5 -129v-13h-73v18q0 48 -20.5 74t-62.5 26q-44 0 -64.5 -28t-20.5 -85v-157q30 75 113 75q66 0 98 -44t32 -122v-106q0 -82 -41 -129.5t-119 -47.5q-79 0 -120 47.5t-41 129.5v357q0 86 40 133t121 47q79 0 118.5 -46zM133.5 344.5
q-20.5 -26.5 -20.5 -74.5v-105q0 -48 20.5 -74.5t62.5 -26.5q41 0 62 26.5t21 74.5v105q0 48 -21 74.5t-62 26.5q-42 0 -62.5 -26.5z" />
    <glyph glyph-name="seven" unicode="7" 
d="M35 630v70h317v-68l-180 -632h-78l179 630h-238z" />
    <glyph glyph-name="eight" unicode="8" horiz-adv-x="392" 
d="M318.5 661.5q42.5 -45.5 42.5 -127.5v-22q0 -55 -20 -92t-60 -52q80 -32 80 -148v-52q0 -82 -42.5 -128.5t-122.5 -46.5t-122.5 46.5t-42.5 128.5v52q0 115 81 148q-81 31 -81 144v22q0 82 42.5 127.5t122.5 45.5t122.5 -45.5zM131 611q-23 -26 -23 -79v-34q0 -98 88 -98
t88 98v34q0 53 -23 79t-65 26t-65 -26zM108 229v-59q0 -53 22.5 -79.5t65.5 -26.5q87 0 88 106v59q0 101 -88 101t-88 -101z" />
    <glyph glyph-name="nine" unicode="9" horiz-adv-x="389" 
d="M313 660q41 -47 41 -129v-357q0 -86 -40 -133.5t-122 -47.5q-78 0 -118 46.5t-40 129.5v13h73v-18q0 -48 21 -74t62 -26q44 0 65 28t21 84v157q-29 -74 -113 -74q-66 0 -98 43.5t-32 121.5v107q0 82 40.5 129t119.5 47t120 -47zM131 610q-21 -26 -21 -75v-105
q0 -48 21 -74.5t62 -26.5q42 0 62.5 26.5t20.5 74.5v105q0 101 -83 101q-41 0 -62 -26z" />
    <glyph glyph-name="zero.alt" horiz-adv-x="389" 
d="M74.5 660q40.5 47 119.5 47t120 -47t41 -129v-361q0 -82 -41 -129.5t-120 -47.5q-78 0 -119 47.5t-41 129.5v361q0 82 40.5 129zM132 90.5q21 -26.5 62 -26.5q42 0 62.5 26.5t20.5 74.5v370q0 49 -20.5 75.5t-62.5 26.5q-41 0 -62 -26.5t-21 -75.5v-370q0 -48 21 -74.5z
" />
    <glyph glyph-name="one.alt" horiz-adv-x="255" 
d="M26 543v64q52 2 78 26t42 67h54v-700h-77v573q-44 -27 -97 -30z" />
    <glyph glyph-name="two.alt" horiz-adv-x="368" 
d="M306 660q39 -47 39 -130q0 -53 -18 -97.5t-44 -79t-68 -80.5q-37 -41 -58 -67.5t-35.5 -59t-14.5 -68.5v-7h231v-71h-307v60q0 55 17 98.5t42 76t66 76.5q37 40 59.5 69t37.5 66t15 81q0 55 -20 82.5t-62 27.5q-41 0 -61.5 -27.5t-20.5 -75.5v-62h-73v57q0 83 39 130.5
t118 47.5t118 -47z" />
    <glyph glyph-name="three.alt" horiz-adv-x="377" 
d="M306.5 660.5q39.5 -46.5 39.5 -129.5v-18q0 -54 -21.5 -91t-63.5 -53q43 -16 64 -53.5t21 -91.5v-54q0 -83 -39.5 -130t-117.5 -47q-79 0 -118.5 47t-39.5 130v48h74v-53q0 -101 82 -101t82 108v54q0 52 -22 77t-67 27h-42v70h47q40 2 62 26.5t22 69.5v32q0 109 -82 109
q-42 0 -62 -26.5t-20 -75.5v-36h-74v32q0 83 39.5 129.5t118.5 46.5q78 0 117.5 -46.5z" />
    <glyph glyph-name="four.alt" horiz-adv-x="400" 
d="M324 0h-77v141h-225v71l217 488h85v-488h56v-71h-56v-141zM247 212v339l-153 -339h153z" />
    <glyph glyph-name="five.alt" horiz-adv-x="378" 
d="M218 473q65 0 97 -44t32 -122v-137q0 -83 -39.5 -130t-118.5 -47q-78 0 -117.5 47t-39.5 130v47h73v-52q0 -48 20.5 -74.5t61.5 -26.5q82 0 82 101v136q0 101 -82 101q-33 0 -53.5 -19t-24.5 -56v-16h-74l20 389h276v-70h-207l-11 -215q34 58 105 58z" />
    <glyph glyph-name="six.alt" horiz-adv-x="386" 
d="M313 660.5q40 -46.5 40 -128.5v-13h-74v18q0 100 -82 100q-44 0 -65 -28t-21 -85v-157q31 75 114 75q65 0 97.5 -44t32.5 -122v-106q0 -82 -41 -129.5t-120 -47.5q-78 0 -119 47.5t-41 129.5v357q0 86 39.5 133t121.5 47q78 0 118 -46.5zM132 344.5q-21 -26.5 -21 -74.5
v-105q0 -48 21 -74.5t62 -26.5q42 0 62.5 26.5t20.5 74.5v105q0 48 -20.5 74.5t-62.5 26.5q-41 0 -62 -26.5z" />
    <glyph glyph-name="seven.alt" horiz-adv-x="349" 
d="M20 630v70h309v-68l-172 -632h-78l173 630h-232z" />
    <glyph glyph-name="eight.alt" horiz-adv-x="393" 
d="M319.5 661.5q42.5 -45.5 42.5 -127.5v-22q0 -55 -20 -92t-60 -52q80 -32 80 -148v-52q0 -82 -42.5 -128.5t-123.5 -46.5q-80 0 -122.5 46.5t-42.5 128.5v52q0 114 81 148q-81 32 -81 144v22q0 82 42.5 127.5t122.5 45.5q81 0 123.5 -45.5zM131.5 611q-22.5 -26 -22.5 -79
v-34q0 -98 87 -98q88 0 88 98v34q0 105 -88 105q-42 0 -64.5 -26zM109 229v-59q0 -53 22.5 -79.5t64.5 -26.5q88 0 88 106v59q0 101 -88 101q-87 0 -87 -101z" />
    <glyph glyph-name="nine.alt" horiz-adv-x="386" 
d="M311.5 660q40.5 -47 40.5 -129v-357q0 -86 -39.5 -133.5t-121.5 -47.5q-78 0 -118 46.5t-40 129.5v13h73v-18q0 -48 21 -74t62 -26q86 0 86 112v157q-31 -74 -114 -74q-65 0 -97.5 43.5t-32.5 121.5v107q0 82 41 129t120 47t119.5 -47zM109 535v-105q0 -48 20.5 -74.5
t62.5 -26.5q41 0 62 26.5t21 74.5v105q0 49 -21 75t-62 26q-83 0 -83 -101z" />
    <glyph glyph-name="uni2080" unicode="&#x2080;" horiz-adv-x="277" 
d="M61.5 354q25.5 30 76.5 30t77 -30t26 -83v-228q0 -53 -26 -83t-77 -30t-76.5 30t-25.5 83v228q0 53 25.5 83zM138 -24q52 0 52 63v236q0 63 -52 63t-52 -63v-236q0 -63 52 -63z" />
    <glyph glyph-name="uni2081" unicode="&#x2081;" horiz-adv-x="189" 
d="M30 284v37q33 1 49 15.5t27 42.5h35v-444h-50v367q-25 -15 -61 -18z" />
    <glyph glyph-name="uni2082" unicode="&#x2082;" horiz-adv-x="275" 
d="M217 355q25 -30 25 -83q0 -48 -21 -83t-62 -80q-35 -38 -52 -65t-16 -59v-4h146v-46h-196v38q0 49 20 83t59 76q36 39 54 68.5t18 70.5q0 68 -52 68q-26 0 -38.5 -17t-12.5 -48v-38h-48v35q0 53 25 83.5t76 30.5q50 0 75 -30z" />
    <glyph glyph-name="uni2083" unicode="&#x2083;" horiz-adv-x="275" 
d="M213 354q25 -30 25 -83v-11q0 -70 -52 -91q52 -20 52 -92v-34q0 -53 -25 -83t-75 -30t-75.5 30t-25.5 83v30h48v-34q0 -30 12.5 -46.5t38.5 -16.5q52 0 52 68v34q0 65 -55 65h-27v46h29q24 0 38.5 16.5t14.5 44.5v20q0 68 -52 68q-26 0 -38.5 -16.5t-12.5 -46.5v-23h-48
v19q0 53 25.5 83t75.5 30t75 -30z" />
    <glyph glyph-name="uni2084" unicode="&#x2084;" horiz-adv-x="283" 
d="M222 -67h-50v89h-143v46l138 309h55v-309h35v-46h-35v-89zM172 68v212l-97 -212h97z" />
    <glyph glyph-name="uni2085" unicode="&#x2085;" horiz-adv-x="275" 
d="M137 -23q51 0 51 63v86q0 30 -12.5 46.5t-38.5 16.5q-20 0 -33.5 -12t-15.5 -35v-10h-48l13 248h175v-46h-131l-6 -134q21 35 66 35q41 0 61.5 -28t20.5 -77v-88q0 -52 -25.5 -82t-75.5 -30t-75 30t-25 82v31h48v-33q0 -63 51 -63z" />
    <glyph glyph-name="uni2086" unicode="&#x2086;" horiz-adv-x="277" 
d="M215.5 354.5q25.5 -29.5 25.5 -82.5v-8h-48v11q0 63 -51 63q-28 0 -41 -17.5t-13 -53.5v-96q20 45 71 45q42 0 62.5 -28t20.5 -78v-67q0 -53 -26 -83t-76 -30t-76.5 30.5t-26.5 82.5v226q0 54 25.5 84.5t77.5 30.5q50 0 75.5 -29.5zM88 106v-67q0 -63 52 -63
q26 0 39 16.5t13 46.5v67q0 31 -13 47.5t-39 16.5q-52 0 -52 -64z" />
    <glyph glyph-name="uni2087" unicode="&#x2087;" horiz-adv-x="275" 
d="M37 335v46h202v-44l-115 -400h-50l113 398h-150z" />
    <glyph glyph-name="uni2088" unicode="&#x2088;" horiz-adv-x="279" 
d="M217.5 355q27.5 -29 27.5 -81v-15q0 -69 -49 -91q49 -22 49 -94v-33q0 -52 -27 -81.5t-79 -29.5q-51 0 -78 29.5t-27 81.5v33q0 71 48 94q-48 22 -48 91v15q0 52 27.5 81t77.5 29q51 0 78.5 -29zM84 272v-21q0 -62 55 -62t55 62v21q0 66 -55 66t-55 -66zM84 80v-38
q0 -66 55 -66t55 66v38q0 63 -55 63t-55 -63z" />
    <glyph glyph-name="uni2089" unicode="&#x2089;" horiz-adv-x="277" 
d="M213 354q26 -30 26 -83v-226q0 -54 -25.5 -84.5t-77.5 -30.5q-50 0 -75.5 30t-25.5 82v8h48v-11q0 -30 13 -46.5t39 -16.5q28 0 41 17.5t13 53.5v96q-20 -45 -72 -45q-41 0 -61.5 28t-20.5 78v67q0 53 26 83t76 30t76 -30zM98 321.5q-13 -16.5 -13 -46.5v-67
q0 -31 13 -47.5t39 -16.5t39 16.5t13 47.5v67q0 30 -13 46.5t-39 16.5t-39 -16.5z" />
    <glyph glyph-name="uni2070" unicode="&#x2070;" horiz-adv-x="277" 
d="M61.5 770q25.5 30 76.5 30t77 -30t26 -83v-228q0 -53 -26 -83t-77 -30t-76.5 30t-25.5 83v228q0 53 25.5 83zM138 392q52 0 52 63v236q0 63 -52 63t-52 -63v-236q0 -63 52 -63z" />
    <glyph glyph-name="uni00B9" unicode="&#xb9;" horiz-adv-x="189" 
d="M79 752.5q16 14.5 27 42.5h35v-444h-50v367q-25 -15 -61 -18v37q33 1 49 15.5z" />
    <glyph glyph-name="uni00B2" unicode="&#xb2;" horiz-adv-x="275" 
d="M217 771q25 -30 25 -83q0 -48 -21 -83t-62 -80q-34 -38 -50.5 -64t-17.5 -58v-6h146v-46h-196v38q0 49 20 83t59 76q36 39 54 68.5t18 70.5q0 68 -52 68q-26 0 -38.5 -17t-12.5 -48v-38h-48v35q0 53 25 83.5t76 30.5q50 0 75 -30z" />
    <glyph glyph-name="uni00B3" unicode="&#xb3;" horiz-adv-x="275" 
d="M213 770q25 -30 25 -83v-11q0 -70 -52 -91q52 -20 52 -92v-34q0 -53 -25 -83t-75 -30t-75.5 30t-25.5 83v30h48v-34q0 -30 12.5 -46.5t38.5 -16.5q52 0 52 68v34q0 65 -55 65h-27v46h29q24 0 38.5 16.5t14.5 44.5v20q0 68 -52 68q-26 0 -38.5 -16.5t-12.5 -46.5v-23h-48
v19q0 53 25.5 83t75.5 30t75 -30z" />
    <glyph glyph-name="uni2074" unicode="&#x2074;" horiz-adv-x="283" 
d="M222 351h-50v88h-143v47l138 309h55v-309h35v-47h-35v-88zM172 486v212l-97 -212h97z" />
    <glyph glyph-name="uni2075" unicode="&#x2075;" horiz-adv-x="275" 
d="M137 391q51 0 51 63v86q0 30 -12.5 46.5t-38.5 16.5q-20 0 -33.5 -12t-15.5 -35v-10h-48l13 248h175v-46h-131l-6 -133q21 35 66 35q41 0 61.5 -28t20.5 -78v-87q0 -53 -25.5 -83t-75.5 -30t-75 30t-25 83v30h48v-33q0 -63 51 -63z" />
    <glyph glyph-name="uni2076" unicode="&#x2076;" horiz-adv-x="277" 
d="M215.5 770.5q25.5 -29.5 25.5 -82.5v-8h-48v11q0 63 -51 63q-28 0 -41 -17.5t-13 -53.5v-96q20 45 71 45q42 0 62.5 -28t20.5 -78v-67q0 -53 -26 -83t-76 -30t-76.5 30.5t-26.5 82.5v226q0 54 25.5 84.5t77.5 30.5q50 0 75.5 -29.5zM88 522v-67q0 -63 52 -63
q26 0 39 16.5t13 46.5v67q0 31 -13 47.5t-39 16.5q-52 0 -52 -64z" />
    <glyph glyph-name="uni2077" unicode="&#x2077;" horiz-adv-x="275" 
d="M37 749v46h202v-44l-115 -400h-50l113 398h-150z" />
    <glyph glyph-name="uni2078" unicode="&#x2078;" horiz-adv-x="279" 
d="M217.5 771q27.5 -29 27.5 -81v-15q0 -69 -49 -91q49 -22 49 -94v-33q0 -52 -27 -81.5t-79 -29.5q-51 0 -78 29.5t-27 81.5v33q0 71 48 94q-48 22 -48 91v15q0 52 27.5 81t77.5 29q51 0 78.5 -29zM84 688v-21q0 -62 55 -62t55 62v21q0 66 -55 66t-55 -66zM84 496v-38
q0 -66 55 -66t55 66v38q0 63 -55 63t-55 -63z" />
    <glyph glyph-name="uni2079" unicode="&#x2079;" horiz-adv-x="277" 
d="M213 770q26 -30 26 -83v-226q0 -54 -25.5 -84.5t-77.5 -30.5q-50 0 -75.5 30t-25.5 82v8h48v-11q0 -30 13 -46.5t39 -16.5q28 0 41 17.5t13 53.5v96q-20 -45 -72 -45q-41 0 -61.5 28t-20.5 78v67q0 53 26 83t76 30t76 -30zM98 737.5q-13 -16.5 -13 -46.5v-67
q0 -31 13 -47.5t39 -16.5t39 16.5t13 47.5v67q0 30 -13 46.5t-39 16.5t-39 -16.5z" />
    <glyph glyph-name="fraction" unicode="&#x2044;" horiz-adv-x="164" 
d="M-32 0h-47l276 700h47z" />
    <glyph glyph-name="onehalf" unicode="&#xbd;" horiz-adv-x="599" 
d="M57 605v37q33 1 49 15.5t27 42.5h35v-444h-50v367q-25 -15 -61 -18zM163 0h-47l276 700h47zM541 420q25 -30 25 -83q0 -33 -11.5 -61t-27 -48.5t-43.5 -52.5q-34 -37 -51 -63.5t-18 -58.5v-7h146v-46h-196v38q0 49 20 83t59 76q36 39 54 68.5t18 70.5q0 68 -52 68
q-26 0 -38.5 -17t-12.5 -48v-38h-48v35q0 53 25 83.5t76 30.5q50 0 75 -30z" />
    <glyph glyph-name="uni2153" unicode="&#x2153;" horiz-adv-x="596" 
d="M57 605v37q33 1 49 15.5t27 42.5h35v-444h-50v367q-25 -15 -61 -18zM163 0h-47l276 700h47zM533.5 419q25.5 -30 25.5 -83v-11q0 -70 -53 -91q53 -20 53 -92v-34q0 -53 -25.5 -83t-75.5 -30t-75 30t-25 83v30h48v-34q0 -30 12.5 -46.5t38.5 -16.5q51 0 51 68v34
q0 65 -55 65h-27v46h29q25 0 39.5 16.5t13.5 44.5v20q0 68 -51 68q-26 0 -38.5 -16.5t-12.5 -46.5v-23h-48v19q0 53 25 83t75 30t75.5 -30z" />
    <glyph glyph-name="uni2154" unicode="&#x2154;" horiz-adv-x="618" 
d="M217 675q25 -30 25 -83q0 -48 -21 -83t-62 -80q-35 -39 -51.5 -65t-16.5 -58v-5h146v-46h-196v38q0 50 20 84t60 76q36 40 53.5 69t17.5 69q0 68 -52 68q-26 0 -38.5 -17t-12.5 -48v-38h-48v36q0 53 25 83t76 30q50 0 75 -30zM153 0l276 700h47l-276 -700h-47zM556 419
q25 -30 25 -83v-11q0 -70 -53 -91q53 -20 53 -92v-34q0 -53 -25 -83t-75 -30t-75.5 30t-25.5 83v30h48v-34q0 -30 12.5 -46.5t38.5 -16.5q51 0 51 68v34q0 65 -55 65h-27v46h29q25 0 39.5 16.5t13.5 44.5v20q0 68 -51 68q-26 0 -38.5 -16.5t-12.5 -46.5v-23h-48v19
q0 53 25.5 83t75.5 30t75 -30z" />
    <glyph glyph-name="onequarter" unicode="&#xbc;" horiz-adv-x="577" 
d="M57 605v37q33 1 49 15.5t27 42.5h35v-444h-50v367q-25 -15 -61 -18zM136 0l276 700h47l-276 -700h-47zM466 0v88h-143v47l137 309h56v-309h34v-47h-34v-88h-50zM466 347l-97 -212h97v212z" />
    <glyph glyph-name="threequarters" unicode="&#xbe;" horiz-adv-x="602" 
d="M213 675q25 -30 25 -83v-11q0 -70 -52 -91q52 -20 52 -92v-34q0 -53 -25 -83t-75 -30t-75.5 30t-25.5 83v30h48v-34q0 -30 12.5 -46.5t38.5 -16.5q52 0 52 68v34q0 65 -55 65h-27v46h29q24 0 38.5 16.5t14.5 44.5v20q0 68 -52 68q-26 0 -38.5 -16.5t-12.5 -46.5v-23h-48
v19q0 53 25.5 83t75.5 30t75 -30zM491 700l-276 -700h-47l276 700h47zM348 88v47l137 309h56v-309h34v-47h-34v-88h-50v88h-143zM491 135v212l-97 -212h97z" />
    <glyph glyph-name="oneeighth" unicode="&#x215b;" horiz-adv-x="601" 
d="M57 605v37q33 1 49 15.5t27 42.5h35v-444h-50v367q-25 -15 -61 -18zM392 700h47l-276 -700h-47zM539.5 420q27.5 -29 27.5 -81v-15q0 -69 -48 -91q48 -23 48 -94v-33q0 -52 -27 -81.5t-78 -29.5q-52 0 -79 29.5t-27 81.5v33q0 72 49 94q-49 22 -49 91v15q0 52 27.5 81
t78.5 29q50 0 77.5 -29zM407 337v-21q0 -62 55 -62t55 62v21q0 66 -55 66t-55 -66zM407 145v-38q0 -66 55 -66t55 66v38q0 63 -55 63t-55 -63z" />
    <glyph glyph-name="threeeighths" unicode="&#x215c;" horiz-adv-x="626" 
d="M213 675q25 -30 25 -83v-11q0 -70 -52 -91q52 -20 52 -92v-34q0 -53 -25 -83t-75 -30t-75.5 30t-25.5 83v30h48v-34q0 -30 12.5 -46.5t38.5 -16.5q52 0 52 68v34q0 65 -55 65h-27v46h29q24 0 38.5 16.5t14.5 44.5v20q0 68 -52 68q-26 0 -38.5 -16.5t-12.5 -46.5v-23h-48
v19q0 53 25.5 83t75.5 30t75 -30zM197 0h-47l276 700h47zM565 420q27 -29 27 -81v-15q0 -70 -48 -91q48 -22 48 -94v-33q0 -52 -27 -81.5t-78 -29.5t-78 29.5t-27 81.5v33q0 72 48 94q-48 21 -48 91v15q0 52 27 81t78 29t78 -29zM432 337v-21q0 -62 55 -62t55 62v21
q0 66 -55 66t-55 -66zM432 145v-38q0 -66 55 -66t55 66v38q0 63 -55 63t-55 -63z" />
    <glyph glyph-name="fiveeighths" unicode="&#x215d;" horiz-adv-x="626" 
d="M472 700l-276 -700h-47l276 700h47zM157 555q41 0 61.5 -28t20.5 -78v-87q0 -53 -25.5 -83t-75.5 -30t-75 30t-25 83v30h48v-33q0 -63 51 -63t51 63v86q0 30 -12.5 46.5t-38.5 16.5q-20 0 -33.5 -12t-15.5 -35v-10h-48l13 248h175v-46h-131l-6 -133q21 35 66 35z
M564.5 420q27.5 -29 27.5 -81v-15q0 -69 -49 -91q49 -22 49 -94v-33q0 -52 -27 -81.5t-79 -29.5q-51 0 -78 29.5t-27 81.5v33q0 71 48 94q-48 22 -48 91v15q0 52 27.5 81t77.5 29q51 0 78.5 -29zM431 337v-21q0 -62 55 -62t55 62v21q0 66 -55 66t-55 -66zM431 145v-38
q0 -66 55 -66t55 66v38q0 63 -55 63t-55 -63z" />
    <glyph glyph-name="seveneighths" unicode="&#x215e;" horiz-adv-x="594" 
d="M37 654v46h202v-44l-115 -400h-50l113 398h-150zM97 0l276 700h47l-276 -700h-47zM532.5 420q27.5 -29 27.5 -81v-15q0 -69 -49 -91q49 -22 49 -94v-33q0 -52 -27 -81.5t-79 -29.5q-51 0 -78 29.5t-27 81.5v33q0 72 48 94q-48 21 -48 91v15q0 52 27 81t78 29t78.5 -29z
M399 337v-21q0 -62 55 -62t55 62v21q0 66 -55 66t-55 -66zM399 145v-38q0 -66 55 -66t55 66v38q0 63 -55 63t-55 -63z" />
    <glyph glyph-name="period" unicode="." horiz-adv-x="155" 
d="M115 0h-75v97h75v-97z" />
    <glyph glyph-name="comma" unicode="," horiz-adv-x="160" 
d="M45 0v97h75v-90l-39 -95h-32l25 88h-29z" />
    <glyph glyph-name="colon" unicode=":" horiz-adv-x="155" 
d="M115 381h-75v97h75v-97zM115 0h-75v97h75v-97z" />
    <glyph glyph-name="semicolon" unicode=";" horiz-adv-x="160" 
d="M120 381h-75v97h75v-97zM45 0v97h75v-90l-39 -95h-32l25 88h-29z" />
    <glyph glyph-name="ellipsis" unicode="&#x2026;" horiz-adv-x="379" 
d="M115 0h-75v97h75v-97zM227 0h-75v97h75v-97zM339 0h-75v97h75v-97z" />
    <glyph glyph-name="exclam" unicode="!" horiz-adv-x="158" 
d="M40 700h78v-329l-10 -216h-58l-10 216v329zM116 0h-75v97h75v-97z" />
    <glyph glyph-name="exclamdown" unicode="&#xa1;" horiz-adv-x="158" 
d="M116 604h-75v96h75v-96zM50 545h58l10 -236v-309h-78v309z" />
    <glyph glyph-name="question" unicode="?" horiz-adv-x="361" 
d="M299.5 660q38.5 -47 38.5 -130q0 -59 -19.5 -100t-56.5 -89q-32 -43 -47.5 -74t-15.5 -73q0 -18 5 -38h-70q-5 20 -5 40q0 50 16 84.5t48 79.5q33 45 50 82t17 92q0 103 -80 103q-41 0 -60.5 -27t-19.5 -76v-62h-73v57q0 83 38.5 130.5t116.5 47.5q79 0 117.5 -47zM205 0
h-74v97h74v-97z" />
    <glyph glyph-name="questiondown" unicode="&#xbf;" horiz-adv-x="361" 
d="M231 603h-75v97h75v-97zM233 504q0 -50 -16.5 -85t-48.5 -78q-33 -47 -50 -83.5t-17 -91.5q0 -103 80 -103q41 0 60.5 27t19.5 76v62h74v-57q0 -83 -39 -130.5t-117 -47.5t-116.5 47t-38.5 130q0 59 19 99.5t56 89.5q32 43 47.5 74t15.5 73q0 22 -4 38h69q6 -18 6 -40z
" />
    <glyph glyph-name="periodcentered" unicode="&#xb7;" horiz-adv-x="155" 
d="M115 306h-75v97h75v-97z" />
    <glyph glyph-name="bullet" unicode="&#x2022;" horiz-adv-x="328" 
d="M238.5 424.5q30.5 -30.5 30.5 -74.5q0 -43 -30.5 -74t-74.5 -31q-43 0 -74 31t-31 74q0 44 31 74.5t74 30.5q44 0 74.5 -30.5z" />
    <glyph glyph-name="asterisk" unicode="*" horiz-adv-x="395" 
d="M327 393l-51 -38l-79 139l-78 -139l-51 38l105 117l-155 32l19 61l146 -64l-18 158h64l-17 -158l146 63l19 -61l-156 -31z" />
    <glyph glyph-name="numbersign" unicode="#" horiz-adv-x="412" 
d="M306 267h56l-6 -56h-56l-22 -211h-64l22 211h-91l-23 -211h-64l23 211h-58l6 56h57l22 205h-59l6 56h58l18 172h64l-18 -172h92l18 172h64l-18 -172h56l-6 -56h-56zM172 472l-22 -205h92l21 205h-91z" />
    <glyph glyph-name="slash" unicode="/" horiz-adv-x="376" 
d="M84 0h-68l276 700h68z" />
    <glyph glyph-name="backslash" unicode="\" horiz-adv-x="376" 
d="M360 0h-68l-276 700h68z" />
    <glyph glyph-name="parenleft" unicode="(" horiz-adv-x="241" 
d="M138 614.5q-16 -21.5 -16 -68.5v-392q0 -47 16 -68.5t56 -21.5h23v-64h-28q-79 0 -111.5 36.5t-32.5 117.5v392q0 81 32.5 117.5t111.5 36.5h28v-64h-23q-40 0 -56 -21.5z" />
    <glyph glyph-name="parenright" unicode=")" horiz-adv-x="241" 
d="M163.5 663.5q32.5 -36.5 32.5 -117.5v-392q0 -81 -32.5 -117.5t-111.5 -36.5h-28v64h23q40 0 56 21.5t16 68.5v392q0 47 -16 68.5t-56 21.5h-23v64h28q79 0 111.5 -36.5z" />
    <glyph glyph-name="braceleft" unicode="{" horiz-adv-x="257" 
d="M171.5 618.5q-12.5 -17.5 -14.5 -59.5l-6 -113q-2 -37 -15.5 -61.5t-49.5 -34.5q36 -10 49.5 -34.5t15.5 -61.5l6 -113q2 -42 14.5 -59.5t42.5 -17.5h19v-64h-46q-92 0 -100 107l-7 136q-2 39 -13.5 55t-46.5 19v66q35 3 46.5 19t13.5 55l7 136q8 107 100 107h46v-64h-19
q-30 0 -42.5 -17.5z" />
    <glyph glyph-name="braceright" unicode="}" horiz-adv-x="257" 
d="M141 672.5q25 -27.5 28 -79.5l8 -136q2 -40 13 -55.5t46 -18.5v-66q-35 -3 -46 -18.5t-13 -55.5l-8 -136q-3 -52 -28 -79.5t-71 -27.5h-46v64h19q30 0 42.5 17.5t14.5 59.5l6 113q2 38 15 62t50 34q-37 10 -50 34t-15 62l-6 113q-2 42 -14.5 59.5t-42.5 17.5h-19v64h46
q46 0 71 -27.5z" />
    <glyph glyph-name="bracketleft" unicode="[" horiz-adv-x="242" 
d="M214 0h-169v700h169v-64h-92v-572h92v-64z" />
    <glyph glyph-name="bracketright" unicode="]" horiz-adv-x="242" 
d="M119 636h-91v64h169v-700h-169v64h91v572z" />
    <glyph glyph-name="hyphen" unicode="-" horiz-adv-x="265" 
d="M228 385v-70h-191v70h191z" />
    <glyph glyph-name="uni00AD" unicode="&#xad;" horiz-adv-x="265" 
d="M228 385v-70h-191v70h191z" />
    <glyph glyph-name="endash" unicode="&#x2013;" horiz-adv-x="458" 
d="M445 382v-64h-432v64h432z" />
    <glyph glyph-name="emdash" unicode="&#x2014;" horiz-adv-x="833" 
d="M820 382v-64h-807v64h807z" />
    <glyph glyph-name="figuredash" unicode="&#x2012;" horiz-adv-x="425" 
d="M412 382v-64h-399v64h399z" />
    <glyph glyph-name="underscore" unicode="_" horiz-adv-x="507" 
d="M490 -67h-477v57h477v-57z" />
    <glyph glyph-name="quotesinglbase" unicode="&#x201a;" horiz-adv-x="160" 
d="M49 -88l25 88h-29v97h75v-90l-39 -95h-32z" />
    <glyph glyph-name="quotedblbase" unicode="&#x201e;" horiz-adv-x="274" 
d="M49 -88l25 88h-29v97h75v-90l-39 -95h-32zM163 -88l25 88h-29v97h75v-90l-38 -95h-33z" />
    <glyph glyph-name="quotedblleft" unicode="&#x201c;" horiz-adv-x="271" 
d="M111 700l-25 -88h29v-97h-75v90l38 95h33zM222 700l-24 -88h28v-97h-74v90l38 95h32z" />
    <glyph glyph-name="quotedblright" unicode="&#x201d;" horiz-adv-x="271" 
d="M44 515l24 88h-28v97h74v-90l-38 -95h-32zM155 515l25 88h-29v97h75v-90l-38 -95h-33z" />
    <glyph glyph-name="quoteleft" unicode="&#x2018;" horiz-adv-x="160" 
d="M111 700l-25 -88h29v-97h-75v90l38 95h33z" />
    <glyph glyph-name="quoteright" unicode="&#x2019;" horiz-adv-x="160" 
d="M49 515l25 88h-29v97h75v-89l-39 -96h-32z" />
    <glyph glyph-name="guillemotleft" unicode="&#xab;" horiz-adv-x="320" 
d="M87 602h71l-63 -251l63 -261h-71l-63 261zM226 602h70l-63 -251l63 -261h-70l-64 261z" />
    <glyph glyph-name="guillemotright" unicode="&#xbb;" horiz-adv-x="320" 
d="M24 602h70l64 -251l-64 -261h-70l63 261zM162 602h70l64 -251l-64 -261h-70l63 261z" />
    <glyph glyph-name="guilsinglleft" unicode="&#x2039;" horiz-adv-x="183" 
d="M86 608h74l-62 -257l62 -268h-74l-62 268z" />
    <glyph glyph-name="guilsinglright" unicode="&#x203a;" horiz-adv-x="183" 
d="M24 608h73l63 -257l-63 -267h-73l61 267z" />
    <glyph glyph-name="quotedbl" unicode="&#x22;" horiz-adv-x="265" 
d="M104 511h-54l-10 189h75zM214 511h-54l-10 189h75z" />
    <glyph glyph-name="quotesingle" unicode="'" horiz-adv-x="151" 
d="M102 511h-54l-10 189h75z" />
    <glyph glyph-name="uni00A0" unicode="&#xa0;" horiz-adv-x="155" 
 />
    <glyph glyph-name="Euro" unicode="&#x20ac;" horiz-adv-x="397" 
d="M95 660.5q38 46.5 116 46.5t116 -46.5t38 -129.5v-45h-73v49q0 101 -79 101t-79 -101v-108h174v-40h-174v-69h174v-41h-174v-112q0 -101 79 -101t79 101v54h73v-50q0 -82 -38 -129t-116 -47t-116 47t-38 129v108h-44v41h44v69h-44v40h44v104q0 83 38 129.5z" />
    <glyph glyph-name="cent" unicode="&#xa2;" 
d="M320.5 608q31.5 -45 31.5 -118v-40h-73v44q0 99 -82 99t-82 -101v-284q0 -48 20 -74t62 -26q41 0 61.5 26t20.5 74v67h73v-62q0 -74 -31.5 -119.5t-95.5 -53.5v-50h-64v50q-62 9 -93 54.5t-31 118.5v274q0 73 31 118.5t93 54.5v50h64v-49q64 -8 95.5 -53z" />
    <glyph glyph-name="currency" unicode="&#xa4;" horiz-adv-x="372" 
d="M308 350q0 -39 -22 -69l52 -51l-32 -31l-51 50q-31 -21 -69 -21q-37 0 -69 21l-51 -50l-31 31l51 51q-22 30 -22 69q0 40 22 68l-51 52l31 31l52 -51q30 22 68 22t69 -22l51 51l32 -31l-52 -52q22 -30 22 -68zM133.5 402.5q-21.5 -21.5 -21.5 -52.5t21.5 -52.5
t52.5 -21.5t53 21.5t22 52.5t-22 52.5t-53 21.5t-52.5 -21.5z" />
    <glyph glyph-name="dollar" unicode="$" 
d="M319 643q31 -45 31 -118v-19h-73v24q0 48 -20 74t-61 26q-40 0 -60 -26t-20 -74q0 -35 14.5 -61.5t35.5 -46t58 -47.5q42 -33 67 -56.5t42.5 -59.5t17.5 -84q0 -73 -31.5 -118.5t-93.5 -54.5v-53h-64v53q-63 9 -94.5 54t-31.5 119v43h73v-48q0 -99 82 -99t82 99
q0 49 -26.5 81.5t-80.5 72.5q-42 32 -67 56.5t-42.5 60.5t-17.5 84q0 74 30.5 118t92.5 54v56h64v-56q62 -9 93 -54z" />
    <glyph glyph-name="sterling" unicode="&#xa3;" horiz-adv-x="391" 
d="M316.5 659.5q38.5 -47.5 38.5 -130.5v-56h-74v60q0 103 -79 103q-80 0 -80 -102q0 -53 11 -89t32 -82q22 -48 30 -77h134v-61h-129q1 -41 -15 -78t-54 -76h221v-71h-319v68q44 18 72.5 59.5t24.5 97.5h-83v61h73q-8 25 -30 69q-23 46 -34.5 83t-11.5 92q0 83 38.5 130
t117.5 47q78 0 116.5 -47.5z" />
    <glyph glyph-name="uni20B9" unicode="&#x20b9;" horiz-adv-x="388" 
d="M281.5 597q12.5 -27 14.5 -60h61v-61h-61q-5 -70 -49 -111.5t-116 -41.5h-17l242 -323h-84l-241 323v60h80q107 0 109 93h-188v61h188q0 50 -27.5 76t-81.5 26h-79v61h325v-61h-112q24 -15 36.5 -42z" />
    <glyph glyph-name="yen" unicode="&#xa5;" horiz-adv-x="414" 
d="M246 173h100v-40h-100v-133h-78v133h-100v40h100v59h-100v41h94l-144 427h81l111 -342l112 342h74l-145 -427h95v-41h-100v-59z" />
    <glyph glyph-name="plus" unicode="+" horiz-adv-x="392" 
d="M224 181h-56v141h-138v56h138v139h56v-139h138v-56h-138v-141z" />
    <glyph glyph-name="minus" unicode="&#x2212;" horiz-adv-x="392" 
d="M362 322h-332v56h332v-56z" />
    <glyph glyph-name="multiply" unicode="&#xd7;" horiz-adv-x="366" 
d="M183 312l-106 -106l-38 38l105 106l-105 105l38 38l106 -105l106 105l38 -38l-106 -105l106 -106l-38 -38z" />
    <glyph glyph-name="divide" unicode="&#xf7;" horiz-adv-x="350" 
d="M212 430h-75v97h75v-97zM320 322h-290v56h290v-56zM212 173h-75v97h75v-97z" />
    <glyph glyph-name="equal" unicode="=" horiz-adv-x="350" 
d="M313 400h-276v56h276v-56zM313 258h-276v56h276v-56z" />
    <glyph glyph-name="greater" unicode="&#x3e;" horiz-adv-x="383" 
d="M277 350l-237 98v57l310 -127v-56l-310 -127v57z" />
    <glyph glyph-name="less" unicode="&#x3c;" horiz-adv-x="383" 
d="M33 322v56l310 127v-57l-237 -98l237 -98v-57z" />
    <glyph glyph-name="plusminus" unicode="&#xb1;" horiz-adv-x="392" 
d="M168 336h-131v56h131v125h56v-125h131v-56h-131v-99h131v-56h-318v56h131v99z" />
    <glyph glyph-name="approxequal" unicode="&#x2248;" horiz-adv-x="396" 
d="M163 484q18 -8 45 -25q22 -15 37 -22t30 -7q18 0 31 12t34 44l38 -38q-27 -42 -51 -59.5t-53 -17.5q-19 0 -37 8t-42 24q-22 14 -37.5 21.5t-31.5 7.5q-20 0 -34.5 -12t-35.5 -43l-38 35q29 43 54 61t53 19q20 0 38 -8zM164 320q18 -8 45 -25q22 -14 36.5 -21t29.5 -7
q18 0 30.5 12t34.5 43l38 -37q-27 -42 -51 -59.5t-53 -17.5q-19 0 -36.5 8t-43.5 24q-22 14 -37.5 21.5t-31.5 7.5q-19 0 -33.5 -12.5t-35.5 -42.5l-38 35q28 43 53.5 61t54.5 18q20 0 38 -8z" />
    <glyph glyph-name="asciitilde" unicode="~" horiz-adv-x="396" 
d="M164.5 401.5q18.5 -8.5 43.5 -24.5q25 -15 38.5 -21.5t27.5 -6.5q18 0 31.5 12t34.5 43l38 -38q-27 -42 -51 -59.5t-53 -17.5q-19 0 -37.5 8.5t-43.5 24.5q-22 14 -37.5 21.5t-30.5 7.5q-19 0 -33.5 -12.5t-35.5 -43.5l-38 36q29 43 54 61t54 18q20 0 38.5 -8.5z" />
    <glyph glyph-name="logicalnot" unicode="&#xac;" horiz-adv-x="388" 
d="M30 378h328v-191h-56v135h-272v56z" />
    <glyph glyph-name="asciicircum" unicode="^" horiz-adv-x="403" 
d="M27 390l146 310h57l146 -310h-63l-112 239l-111 -239h-63z" />
    <glyph glyph-name="infinity" unicode="&#x221e;" horiz-adv-x="583" 
d="M515 451q35 -32 35 -93t-35 -92.5t-97 -31.5h-13q-85 0 -109 55q-25 -55 -112 -55h-12q-63 0 -98 32t-35 92q0 61 35.5 93t97.5 32h12q86 0 112 -56q24 56 109 56h13q62 0 97 -32zM94 358q0 -69 79 -70h18q39 0 58.5 18t19.5 52t-19.5 52.5t-58.5 18.5h-18q-79 0 -79 -71
zM320 358q0 -33 17.5 -51t59.5 -19h18q39 0 59.5 18.5t20.5 51.5q0 34 -20.5 52.5t-59.5 18.5h-18q-77 0 -77 -71z" />
    <glyph glyph-name="uni00B5" unicode="&#xb5;" horiz-adv-x="398" 
d="M245 14.5q-27 -21.5 -60 -21.5q-25 0 -42.5 12.5t-25.5 33.5v-131h-78v592h78v-334q0 -48 20.5 -74.5t60.5 -26.5t60.5 26.5t20.5 74.5v334h78v-500h-71v72q-14 -36 -41 -57.5z" />
    <glyph glyph-name="percent" unicode="%" horiz-adv-x="616" 
d="M210.5 673.5q25.5 -30.5 25.5 -82.5v-221q0 -53 -25 -83t-75 -30t-75 30t-25 83v221q0 52 25.5 82.5t74.5 30.5t74.5 -30.5zM191 0h-47l276 700h47zM86 594v-228q0 -63 50 -63q25 0 37.5 16.5t12.5 46.5v228q0 30 -12.5 47t-37.5 17q-50 0 -50 -64zM555 412
q25 -30 25 -82v-220q0 -53 -25 -83t-75 -30t-75 30t-25 83v220q0 52 25 82t75 30t75 -30zM442.5 379.5q-12.5 -16.5 -12.5 -46.5v-227q0 -30 12.5 -47t37.5 -17t37.5 17t12.5 47v227q0 30 -12.5 46.5t-37.5 16.5t-37.5 -16.5z" />
    <glyph glyph-name="perthousand" unicode="&#x2030;" horiz-adv-x="867" 
d="M210.5 673.5q25.5 -30.5 25.5 -82.5v-221q0 -53 -25 -83t-75 -30t-75 30t-25 83v221q0 52 25.5 82.5t74.5 30.5t74.5 -30.5zM191 0h-47l276 700h47zM86 594v-228q0 -63 50 -63q25 0 37.5 16.5t12.5 46.5v228q0 30 -12.5 47t-37.5 17q-50 0 -50 -64zM555 412
q25 -30 25 -82v-220q0 -53 -25 -83t-75 -30t-75 30t-25 83v220q0 52 25 82t75 30t75 -30zM806 412q25 -30 25 -82v-220q0 -53 -25 -83t-75 -30t-75 30t-25 83v220q0 52 25 82t75 30t75 -30zM442.5 379.5q-12.5 -16.5 -12.5 -46.5v-227q0 -30 12.5 -47t37.5 -17t37.5 17
t12.5 47v227q0 30 -12.5 46.5t-37.5 16.5t-37.5 -16.5zM682 333v-227q0 -64 49 -64q25 0 37.5 17t12.5 47v227q0 30 -12.5 46.5t-37.5 16.5q-49 0 -49 -63z" />
    <glyph glyph-name="at" unicode="@" horiz-adv-x="689" 
d="M599 657.5q65 -77.5 65 -210.5q0 -95 -25.5 -166t-68 -108.5t-89.5 -37.5q-36 0 -56.5 17.5t-22.5 50.5q-32 -68 -100 -68q-49 0 -73 32.5t-24 88.5q0 10 2 32l11 100q7 69 37.5 107.5t82.5 38.5q35 0 58 -17t32 -49l7 62h68l-30 -287q-2 -19 4.5 -31t24.5 -12
q52 0 77 75t25 165q0 111 -52.5 172.5t-162.5 61.5q-144 0 -218.5 -107t-74.5 -283q0 -133 62.5 -205t190.5 -72q57 0 104.5 14t92.5 49l-6 -69q-43 -30 -90.5 -42t-104.5 -12q-160 0 -238 90t-78 251q0 123 40 224.5t121.5 162t200.5 60.5q143 0 208 -77.5zM308.5 444
q-18.5 -22 -23.5 -63l-9 -90q-1 -7 -1 -20q0 -70 60 -70q33 0 51.5 24t23.5 65l10 96q1 5 1 14q0 31 -16 48.5t-45 17.5q-33 0 -51.5 -22z" />
    <glyph glyph-name="ampersand" unicode="&#x26;" horiz-adv-x="408" 
d="M118 530v-35q0 -45 21 -69t60 -26h79v78h77v-78h34v-70h-34v-241q0 -31 2.5 -51t12.5 -38h-79q-6 14 -9 27t-4 34q-15 -33 -43 -50.5t-67 -17.5q-64 0 -95.5 42.5t-31.5 118.5v68q0 54 20.5 92t62.5 54q-42 15 -62.5 52t-20.5 91v16q0 84 41.5 128.5t123.5 44.5h113v-71
h-111q-90 0 -90 -99zM118 224v-64q0 -47 20.5 -71.5t60.5 -24.5q35 0 56.5 20.5t22.5 59.5v186h-73q-87 -3 -87 -106z" />
    <glyph glyph-name="paragraph" unicode="&#xb6;" horiz-adv-x="396" 
d="M203 -63h-57l1 340q-64 1 -96 45.5t-32 122.5v86q0 82 36 125.5t115 43.5h180v-763h-57v706h-90v-706z" />
    <glyph glyph-name="section" unicode="&#xa7;" 
d="M306.5 671q41.5 -36 41.5 -96v-27h-74v17q0 35 -21.5 56t-56.5 21q-36 0 -58.5 -18.5t-22.5 -53.5q0 -29 22.5 -46.5t70.5 -39.5q45 -21 73 -39t48 -49t20 -78q0 -42 -22 -75t-61 -52q39 -22 61.5 -51.5t22.5 -74.5q0 -60 -43 -97.5t-113 -37.5q-73 0 -115 35.5t-42 96.5
v41h74v-31q0 -36 22.5 -56.5t58.5 -20.5q34 0 57 18.5t23 52.5q0 30 -23 48t-71 39q-45 21 -72.5 38.5t-47.5 48t-20 76.5q0 42 24 75.5t63 51.5q-42 24 -65 53.5t-23 77.5q1 60 43 96.5t114 36.5q71 0 112.5 -36zM134.5 380.5q-22.5 -26.5 -22.5 -62.5t23 -56.5t66 -39.5
q32 8 53 33.5t21 60.5q0 34 -22 55.5t-62 40.5q-34 -5 -56.5 -31.5z" />
    <glyph glyph-name="copyright" unicode="&#xa9;" horiz-adv-x="742" 
d="M547.5 658q78.5 -46 123 -126.5t44.5 -181.5t-44.5 -181.5t-123 -126.5t-176.5 -46t-176.5 46t-123 126.5t-44.5 181.5t44.5 181.5t123 126.5t176.5 46t176.5 -46zM221 614.5q-67 -39.5 -105 -109t-38 -155.5t38 -155.5t105 -109t150 -39.5t150 39.5t105 109t38 155.5
t-38 155.5t-105 109t-150 39.5t-150 -39.5zM448.5 537q27.5 -33 27.5 -91v-30h-52v34q0 69 -56 69q-28 0 -42 -18t-14 -51v-200q0 -33 14 -51t42 -18q56 0 56 69v49h52v-46q0 -57 -27.5 -90t-81.5 -33q-55 0 -82 32.5t-27 90.5v193q0 58 27 91t82 33q54 0 81.5 -33z" />
    <glyph glyph-name="registered" unicode="&#xae;" horiz-adv-x="742" 
d="M547.5 658q78.5 -46 123 -126.5t44.5 -181.5t-44.5 -181.5t-123 -126.5t-176.5 -46t-176.5 46t-123 126.5t-44.5 181.5t44.5 181.5t123 126.5t176.5 46t176.5 -46zM221 614.5q-67 -39.5 -105 -109t-38 -155.5t38 -155.5t105 -109t150 -39.5t150 39.5t105 109t38 155.5
t-38 155.5t-105 109t-150 39.5t-150 -39.5zM458.5 536q26.5 -28 26.5 -84v-10q0 -40 -14 -65t-44 -36q31 -10 44.5 -35t13.5 -65v-46q0 -20 2 -33.5t9 -25.5h-57q-5 11 -6.5 23t-1.5 36v46q0 40 -18 56t-55 16h-37v-177h-54v428h109q56 0 82.5 -28zM414 379q16 15 16 51v16
q0 34 -13 51t-44 17h-52v-150h45q32 0 48 15z" />
    <glyph glyph-name="uni2117" unicode="&#x2117;" horiz-adv-x="742" 
d="M547.5 658q78.5 -46 123 -126.5t44.5 -181.5q0 -100 -44.5 -181t-123 -127t-176.5 -46t-176.5 46t-123 127t-44.5 181q0 101 44.5 181.5t123 126.5t176.5 46t176.5 -46zM221 614.5q-67 -39.5 -105 -109t-38 -155.5t38 -155.5t105 -109t150 -39.5t150 39.5t105 109
t38 155.5t-38 155.5t-105 109t-150 39.5t-150 -39.5zM475 526.5q26 -28.5 26 -84.5v-46q0 -58 -27 -85.5t-85 -27.5h-51v-156h-54v428h109q56 0 82 -28.5zM432.5 350.5q14.5 16.5 14.5 51.5v34q0 34 -13.5 51.5t-43.5 17.5h-52v-171h48q32 0 46.5 16.5z" />
    <glyph glyph-name="trademark" unicode="&#x2122;" horiz-adv-x="583" 
d="M94 654h-82v46h213v-46h-81v-310h-50v310zM388 346l-73 277v-279h-45v356h70l73 -278l70 278h70v-356h-48v281l-69 -279h-48z" />
    <glyph glyph-name="degree" unicode="&#xb0;" horiz-adv-x="219" 
d="M170.5 683q25.5 -25 25.5 -61t-25.5 -61t-61.5 -25q-35 0 -60.5 25t-25.5 61t25.5 61t60.5 25q36 0 61.5 -25zM74.5 657q-14.5 -14 -14.5 -35q0 -20 14.5 -34.5t34.5 -14.5t35 14.5t15 34.5q0 21 -14.5 35t-35.5 14q-20 0 -34.5 -14z" />
    <glyph glyph-name="bar" unicode="|" horiz-adv-x="373" 
d="M222 -44h-64v788h64v-788z" />
    <glyph glyph-name="brokenbar" unicode="&#xa6;" horiz-adv-x="374" 
d="M222 744v-334h-64v334h64zM222 290v-334h-64v334h64z" />
    <glyph glyph-name="dagger" unicode="&#x2020;" horiz-adv-x="394" 
d="M365 513v-61h-136v-517h-64v517h-135v61h135v187h64v-187h136z" />
    <glyph glyph-name="daggerdbl" unicode="&#x2021;" horiz-adv-x="394" 
d="M365 513v-61h-136v-268h136v-61h-136v-188h-64v188h-135v61h135v268h-135v61h135v187h64v-187h136z" />
    <glyph glyph-name="uni02BC" unicode="&#x2bc;" horiz-adv-x="160" 
d="M49 515l25 88h-29v97h75v-89l-39 -96h-32z" />
    <glyph glyph-name="uniF6C3" unicode="&#xf6c3;" horiz-adv-x="0" 
d="M73 -177l23 56h-25v88h66v-81l-35 -63h-29z" />
    <glyph glyph-name="acute" unicode="&#xb4;" horiz-adv-x="223" 
d="M85 745h-54l70 103h77z" />
    <glyph glyph-name="breve" unicode="&#x2d8;" horiz-adv-x="252" 
d="M202 760q-28 -27 -77 -27q-48 0 -75 27t-28 74h47q3 -52 56 -52q55 0 58 52h48q-1 -47 -29 -74z" />
    <glyph glyph-name="caron" unicode="&#x2c7;" horiz-adv-x="250" 
d="M125 788l53 60h68l-86 -100h-69l-87 100h68z" />
    <glyph glyph-name="cedilla" unicode="&#xb8;" horiz-adv-x="249" 
d="M198 -50q19 -11 19 -38q0 -35 -25 -48t-69 -13q-41 0 -66.5 14t-25.5 45v8h53v-7q0 -15 11.5 -22t27.5 -8q17 0 28.5 8t11.5 25q0 18 -12.5 25t-34.5 7h-8v63h35v-48q36 0 55 -11z" />
    <glyph glyph-name="circumflex" unicode="&#x2c6;" horiz-adv-x="250" 
d="M4 748l87 100h69l86 -100h-68l-53 59l-53 -59h-68z" />
    <glyph glyph-name="dieresis" unicode="&#xa8;" horiz-adv-x="219" 
d="M103 741h-68v90h68v-90zM184 741h-68v90h68v-90z" />
    <glyph glyph-name="dotaccent" unicode="&#x2d9;" horiz-adv-x="198" 
d="M133 743h-68v90h68v-90z" />
    <glyph glyph-name="grave" unicode="`" horiz-adv-x="223" 
d="M193 745h-57l-93 103h81z" />
    <glyph glyph-name="hungarumlaut" unicode="&#x2dd;" horiz-adv-x="242" 
d="M46 745h-50l58 103h72zM153 745h-49l57 103h72z" />
    <glyph glyph-name="macron" unicode="&#xaf;" horiz-adv-x="251" 
d="M232 744h-212v56h212v-56z" />
    <glyph glyph-name="ogonek" unicode="&#x2db;" horiz-adv-x="227" 
d="M114.5 -32.5q-10.5 -20.5 -9.5 -36.5q0 -15 10.5 -22.5t26.5 -7.5q20 0 40 9v-41q-27 -12 -62 -12t-55 14.5t-20 43.5q0 24 17.5 47t48.5 41h34q-20 -15 -30.5 -35.5z" />
    <glyph glyph-name="ring" unicode="&#x2da;" horiz-adv-x="234" 
d="M169 866q21 -21 21 -52t-21 -52t-52 -21t-52.5 21t-21.5 52t21.5 52t52.5 21t52 -21zM90.5 840q-10.5 -10 -10.5 -26t10.5 -26t26.5 -10q15 0 25.5 10t10.5 26t-10.5 26t-25.5 10q-16 0 -26.5 -10z" />
    <glyph glyph-name="tilde" unicode="&#x2dc;" horiz-adv-x="256" 
d="M220.5 758.5q-18.5 -14.5 -41.5 -14.5q-22 0 -50 16q-10 5 -20.5 9t-19.5 4q-15 0 -25.5 -6.5t-18.5 -22.5l-39 26q24 58 74 58q14 0 25.5 -4t26.5 -12q24 -13 39 -13q13 0 23 6.5t18 22.5l38 -26q-11 -29 -29.5 -43.5z" />
    <glyph glyph-name="Edotaaccent" horiz-adv-x="405" 
 />
    <glyph glyph-name="edotaaccent" horiz-adv-x="405" 
 />
    <glyph glyph-name="lcute" horiz-adv-x="405" 
 />
    </font>
</defs>
</svg>
